Today is a free download without charge Download

Властелин колец: Кинотрилогия / The Lord of the Rings: The Motion Picture Trilogy (Питер Джексон / Peter Jackson) [2001, 2002, 2003 г. США, Новая Зеландия. Боевик, фэнтези, приключения. BDRip 720p / 30GB] [Extended Edition]

Reply to topic
 
Author
Message

Omen ®

Longevity: 8 years 5 months

Posts: 181087

Торрент-статистика

Post 06-Apr-2013 19:59

[Quote]

Властелин колец: Кинотрилогия
The Lord of the Rings: The Motion Picture Trilogy [Extended Edition]

-
Доп. информация: Весь исходный материал для рипов взят с этой раздачи. Большое спасибо всем её авторам.
Переходы между частями/дисками (чёрный экран) убраны. Исходные звуковые дорожки, субтитры и главы также были соответствующим образом отредактированы. Т.о., видеоряд в этой раздаче идентичен имеющимся рипам HANSMER-а, что делает совместимыми все дорожки этих рипов с данной раздачей. Звуковые дорожки в этой раздаче - результат перекода из DTS-HD MA (декодер ArcSoft v1.1.0.0, энкодер Sony Vegas 7.0).
Данная раздача не претендует заменить существующую, поскольку имеет значительно меньший битрейт, что делает его уникальной по правилам этого подраздела в пользу уменьшения размера. Тем не менее, качество звука и видео при этом сохранилось достаточно высоким (если брать в учёт размеры рипов).
-
Властелин колец: Братство кольца / The Lord of the Rings: The Fellowship of the Ring (2001) [Extended Edition]
Страна: США, Новая Зеландия
Студия: New Line Cinema
Жанр: Боевик, фэнтези, приключения
Год выпуска: 2001
Продолжительность: 03:48:11
Перевод: Профессиональный (многоголосый закадровый) Позитив ММ
Cубтитры: русские, английские, украинские
Оригинальная аудиодорожка: английский
Режиссер: Питер Джексон / Peter Jackson
В ролях: Элайджа Вуд, Шон Эстин, Вигго Мортенсен, Иэн МакКеллен, Доминик Монахэн, Билли Бойд, Шон Бин, Орландо Блум, Джон Рис-Дэвис, Кристофер Ли
Описание: Сказания о Средиземье — это хроника Великой войны за Кольцо, войны, длившейся не одну тысячу лет. Тот, кто владел Кольцом, получал власть над всеми живыми тварями, но был обязан служить злу. Тихая деревня, где живут хоббиты. Волшебник Гэндальф, придя на 111-й день рождения к своему старому другу Бильбо Бэггинсу, начинает вести разговор о кольце, которое Бильбо нашел много лет назад. Это кольцо принадлежало когда-то темному властителю Средиземья Саурону, и оно дает большую власть своему обладателю. Теперь Саурон хочет вернуть себе власть над Средиземьем. Бильбо отдает найденное кольцо своему племяннику Фродо, который пытается научиться справляться с тем страшным могуществом, которое дает ему кольцо...
Тип релиза: BDRip 720p
Контейнер: MKV
Видео: H.264 (x264), 1280x532p (2.40:1), ~4500 Kbps, 23.976 fps
Аудио#1: Russian (AC3 5.1ch, 448 Kbps) (Позитив ММ)
Аудио#2: English (AC3 5.1ch, 448 Kbps) (Оригинал)
Субтитры#1: Russian (ass) (Стилизованные - Эльфийская речь и пр.)
Субтитры#2: Russian (srt) (Полные - Позитив ММ)
Субтитры#3: Russian (srt) (Полные - Henneth-annun)
Субтитры#4: Ukrainian (srt) (Полные)
Субтитры#5: English (ass) (Стилизованные - Эльфийская речь и пр.)
Субтитры#6: English (srt) (Полные)
Перемотка по главам: Есть

Скриншоты

Источник / Этот рип / Рип от HANSMER-а




Crop

Расчёт / Предпросмотр

До / После

MediaInfo

General
Unique ID : 211233886480959661936032621003168921693 (0x9EEA2AAE718CECB2BA6F14C9A1D9B85D)
Complete name : F:\Rips\FOTR\LOTR - (2001) The Fellowship of the Ring [Extended Edition] 720p.mkv
Format : Matroska
Format version : Version 4 / Version 2
File size : 8.60 GiB
Duration : 3h 48mn
Overall bit rate : 5 398 Kbps
Movie name : The Lord of the Rings: The Fellowship of the Ring (2001) [Extended Edition]
Encoded date : UTC 2013-03-23 07:18:41
Writing application : mkvmerge v6.1.0 ('Old Devil') built on Mar 2 2013 14:32:37
Writing library : libebml v1.3.0 + libmatroska v1.4.0
Attachment : Yes / Yes / Yes
Video
ID : 1
Format : AVC
Format/Info : Advanced Video Codec
Format profile : [email protected]
Format settings, CABAC : Yes
Format settings, ReFrames : 11 frames
Codec ID : V_MPEG4/ISO/AVC
Duration : 3h 48mn
Bit rate : 4 500 Kbps
Width : 1 280 pixels
Height : 532 pixels
Display aspect ratio : 2.40:1
Frame rate mode : Constant
Frame rate : 23.976 fps
Color space : YUV
Chroma subsampling : 4:2:0
Bit depth : 8 bits
Scan type : Progressive
Bits/(Pixel*Frame) : 0.276
Stream size : 7.00 GiB (81%)
Title : H.264 (x264), 1280x532p (2.4:1), ~4500 Kbps, 23.976 fps (Softcode)
Writing library : x264 core 129 r2245 bc13772
Encoding settings : cabac=1 / ref=11 / deblock=1:-2:-1 / analyse=0x3:0x113 / me=esa / subme=10 / psy=1 / psy_rd=1.10:0.00 / mixed_ref=1 / me_range=32 / chroma_me=1 / trellis=2 / 8x8dct=1 / cqm=0 / deadzone=21,11 / fast_pskip=0 / chroma_qp_offset=-2 / threads=6 / lookahead_threads=1 / sliced_threads=0 / nr=0 / decimate=0 / interlaced=0 / bluray_compat=0 / constrained_intra=0 / bframes=10 / b_pyramid=2 / b_adapt=2 / b_bias=0 / direct=3 / weightb=1 / open_gop=0 / weightp=2 / keyint=240 / keyint_min=23 / scenecut=40 / intra_refresh=0 / rc_lookahead=40 / rc=2pass / mbtree=0 / bitrate=4500 / ratetol=1.0 / qcomp=0.70 / qpmin=0 / qpmax=69 / qpstep=4 / cplxblur=20.0 / qblur=0.5 / vbv_maxrate=50000 / vbv_bufsize=62500 / nal_hrd=none / ip_ratio=1.40 / pb_ratio=1.30 / aq=1:0.80 / zones=288580,328248,b=0.5
Language : English
Default : Yes
Forced : No
Color primaries : BT.709
Transfer characteristics : BT.709
Matrix coefficients : BT.709
Audio #1
ID : 2
Format : AC-3
Format/Info : Audio Coding 3
Mode extension : CM (complete main)
Format settings, Endianness : Big
Codec ID : A_AC3
Duration : 3h 48mn
Bit rate mode : Constant
Bit rate : 448 Kbps
Channel(s) : 6 channels
Channel positions : Front: L C R, Side: L R, LFE
Sampling rate : 48.0 KHz
Bit depth : 16 bits
Compression mode : Lossy
Stream size : 731 MiB (8%)
Title : AC3 (Dolby) 5.1ch, 448 Kbps (Позитив ММ)
Language : Russian
Default : Yes
Forced : No
Audio #2
ID : 3
Format : AC-3
Format/Info : Audio Coding 3
Mode extension : CM (complete main)
Format settings, Endianness : Big
Codec ID : A_AC3
Duration : 3h 48mn
Bit rate mode : Constant
Bit rate : 448 Kbps
Channel(s) : 6 channels
Channel positions : Front: L C R, Side: L R, LFE
Sampling rate : 48.0 KHz
Bit depth : 16 bits
Compression mode : Lossy
Stream size : 731 MiB (8%)
Title : AC3 (Dolby) 5.1ch, 448 Kbps (Оригинал)
Language : English
Default : No
Forced : No
Text #1
ID : 4
Format : ASS
Codec ID : S_TEXT/ASS
Codec ID/Info : Advanced Sub Station Alpha
Compression mode : Lossless
Title : Стилизованные (Эльфийская речь и пр.)
Language : Russian
Default : Yes
Forced : No
Text #2
ID : 5
Format : UTF-8
Codec ID : S_TEXT/UTF8
Codec ID/Info : UTF-8 Plain Text
Title : Полные (Позитив ММ)
Language : Russian
Default : No
Forced : No
Text #3
ID : 6
Format : UTF-8
Codec ID : S_TEXT/UTF8
Codec ID/Info : UTF-8 Plain Text
Title : Полные (Henneth-annun)
Language : Russian
Default : No
Forced : No
Text #4
ID : 7
Format : UTF-8
Codec ID : S_TEXT/UTF8
Codec ID/Info : UTF-8 Plain Text
Title : Полные
Language : Ukrainian
Default : No
Forced : No
Text #5
ID : 8
Format : ASS
Codec ID : S_TEXT/ASS
Codec ID/Info : Advanced Sub Station Alpha
Compression mode : Lossless
Title : Стилизованные (Эльфийская речь и пр.)
Language : English
Default : No
Forced : No
Text #6
ID : 9
Format : ASS
Codec ID : S_TEXT/ASS
Codec ID/Info : Advanced Sub Station Alpha
Compression mode : Lossless
Title : Полные
Language : English
Default : No
Forced : No
Menu
00:00:00.000 : en: 1. Prologue: One Ring To Rule Them All...
00:07:36.790 : en: 2. Concerning Hobbits
00:10:35.552 : en: 3. The Shire
00:15:39.856 : en: 4. Very Old Friends
00:19:58.489 : en: 5. A Long-expected Party
00:25:32.614 : en: 6. Farewell Dear Bilbo
00:29:57.379 : en: 7. Keep It Secret, Keep It Safe
00:32:10.679 : en: 8. The Account Of Isildur
00:34:51.798 : en: 9. At The Green Dragon
00:36:18.176 : en:10. The Shadow of the Past
00:45:04.160 : en:11. The Passing of the Elves
00:46:44.301 : en:12. Saruman The White
00:51:21.412 : en:13. A Short Cut to Mushrooms
00:55:12.434 : en:14. Bucklebury Ferry
00:57:30.072 : en:15. At the Sign of The Prancing Pony
01:03:31.516 : en:16. The Nazgul
01:07:16.115 : en:17. The Midgewater Marshes
01:08:53.588 : en:18. The Spoiling Of Isengard
01:10:35.940 : en:19. A Knife in the Dark
01:15:15.386 : en:20. The Caverns of Isengard
01:17:46.620 : en:21. Flight to the Ford
01:24:11.546 : en:22. Rivendell
01:26:12.501 : en:23. Many Meetings
01:29:41.585 : en:24. The Fate of the Ring
01:33:14.672 : en:25. The Sword That Was Broken
01:35:54.082 : en:26. The Evenstar
01:37:32.972 : en:27. The Council of Elrond
01:45:38.374 : en:28. Gilraen's Memorial
01:46:53.200 : en:29. Bilbo's Gifts
01:48:36.595 : en:30. The Departure of the Fellowship
01:49:54.005 : en:31. The Ring Goes South
01:52:59.816 : en:32. The Pass of Caradhras
01:57:46.102 : en:33. Moria
02:04:11.487 : en:34. A Journey in the Dark
02:10:41.835 : en:35. Balin's Tomb
02:20:06.566 : en:36. The Bridge of Khazad-Dum
02:29:48.022 : en:37. Lothlorien
02:33:00.673 : en:38. Caras Galadhorn
02:40:17.693 : en:39. The Mirror of Galadriel
02:45:57.699 : en:40. The Fighting Uruk-Hai
02:47:39.050 : en:41. Farewell to Lorien
02:53:01.581 : en:42. The Great River
02:57:53.831 : en:43. Parth Galen
03:04:21.593 : en:44. The Breaking of the Fellowship
03:11:37.529 : en:45. The Departure of Boromir
03:14:19.858 : en:46. The Road Goes Ever On
03:20:38.027 : en:47. Credits
03:28:18.529 : en:48. Official Fan Club Credits

Log

-[Information] Log for job1 (video, 1.avs -> )
--[Information] [18.03.2013 23:27:54] Started handling job
--[Information] [18.03.2013 23:27:54] Preprocessing
--[Information] [18.03.2013 23:27:54] Avisynth input script
---[NoImage] # Источник
---[NoImage] DirectShowSource("F:\Rips\FOTR\The.Lord.of.the.Rings-The Fellowship.of.the.Ring.2001.Blu-ray.Extended.1080p.AVC.Rus.Eng_track1_eng.mkv")
---[NoImage] #-------------------- Информация ---------------------
---[NoImage] # Исходное разрешение: 1920x1080 (YV12p)
---[NoImage] # Обр. до изобр.: left=0, top=140, width=1920, height=800
---[NoImage] # SAR: 1:1 -> 1:1
---[NoImage] # DAR: 16:9 -> 320:133 (ошибка=0%)
---[NoImage] # Обрезано изображения в обрезке с коррекцией: 0.25%
---[NoImage] #-----------------------------------------------------
---[NoImage] # Изменение формы кадра
---[NoImage] Crop (0, 140, 1920, 798)
---[NoImage] BicubicResize (b=0, c=1, 1280, 532)
---[NoImage] Trim(0, 151968) + Trim(152138, 328417)
--[Information] [18.03.2013 23:27:55] Job commandline: "E:\Programs\Redactors\megui\tools\x264\x264.exe" --level 4.1 --pass 1 --bitrate 4500 --stats "F:\Rips\FOTR\1.stats" --slow-firstpass --deblock -2:-1 --keyint 240 --bframes 10 --b-adapt 2 --ref 11 --vbv-bufsize 62500 --vbv-maxrate 50000 --qcomp 0.7 --no-mbtree --aq-strength 0.8 --merange 32 --me esa --direct auto --subme 10 --trellis 2 --psy-rd 1.10:0 --no-dct-decimate --no-fast-pskip --range tv --colorprim bt709 --transfer bt709 --colormatrix bt709 --zones 288580,328248,b=0.5 --sar 1:1 --output NUL "F:\Rips\FOTR\1.avs"
--[Information] [18.03.2013 23:27:55] Encoding started
--[Information] [20.03.2013 23:04:17] Standard output stream
--[Information] [20.03.2013 23:04:17] Standard error stream
---[NoImage] avs [info]: 1280x532p 1:1 @ 10000000/417083 fps (cfr)
---[NoImage] x264 [info]: using SAR=1/1
---[NoImage] x264 [info]: using cpu capabilities: MMX2 SSE2Fast FastShuffle SSEMisalign LZCNT
---[NoImage] x264 [info]: profile High, level 4.1
---[NoImage]
---[NoImage] x264 [info]: frame I:2824 Avg QP:15.45 size: 97742
---[NoImage] x264 [info]: frame P:70720 Avg QP:17.16 size: 42166
---[NoImage] x264 [info]: frame B:254705 Avg QP:19.64 size: 15314
---[NoImage] x264 [info]: consecutive B-frames: 1.9% 2.3% 5.9% 25.9% 19.8% 30.8% 9.1% 2.5% 0.6% 0.4% 0.6%
---[NoImage] x264 [info]: mb I I16..4: 4.7% 78.2% 17.1%
---[NoImage] x264 [info]: mb P I16..4: 1.5% 14.6% 2.3% P16..4: 34.1% 27.7% 16.2% 0.0% 0.0% skip: 3.6%
---[NoImage] x264 [info]: mb B I16..4: 0.2% 1.3% 0.4% B16..8: 38.2% 14.4% 4.5% direct: 8.9% skip:32.1% L0:43.5% L1:41.8% BI:14.7%
---[NoImage] x264 [info]: final ratefactor: 16.37
---[NoImage] x264 [info]: 8x8 transform intra:76.4% inter:59.3%
---[NoImage] x264 [info]: direct mvs spatial:99.9% temporal:0.1%
---[NoImage] x264 [info]: coded y,uvDC,uvAC intra: 84.4% 82.3% 60.8% inter: 33.3% 24.7% 11.7%
---[NoImage] x264 [info]: i16 v,h,dc,p: 60% 11% 10% 18%
---[NoImage] x264 [info]: i8 v,h,dc,ddl,ddr,vr,hd,vl,hu: 12% 7% 8% 9% 14% 13% 13% 12% 13%
---[NoImage] x264 [info]: i4 v,h,dc,ddl,ddr,vr,hd,vl,hu: 31% 5% 5% 8% 12% 10% 11% 9% 10%
---[NoImage] x264 [info]: i8c dc,h,v,p: 46% 21% 18% 15%
---[NoImage] x264 [info]: Weighted P-Frames: Y:5.2% UV:2.5%
---[NoImage] x264 [info]: ref P L0: 46.2% 9.4% 18.8% 6.9% 5.3% 3.6% 3.3% 1.8% 1.7% 1.4% 1.5% 0.2% 0.0%
---[NoImage] x264 [info]: ref B L0: 70.1% 13.5% 6.2% 3.6% 2.0% 1.6% 1.3% 0.8% 0.5% 0.3%
---[NoImage] x264 [info]: ref B L1: 91.9% 8.1%
---[NoImage] x264 [info]: kb/s:4183.06
---[NoImage] encoded 328249 frames, 1.92 fps, 4183.06 kb/s
--[Information] [20.03.2013 23:04:18] Postprocessing
---[Information] Deleting intermediate files
--[Information] [20.03.2013 23:04:18] Job completed
-[Information] Log for job2 (video, 1.avs -> 1.mkv)
--[Information] [20.03.2013 23:04:18] Started handling job
--[Information] [20.03.2013 23:04:18] Preprocessing
--[Information] [20.03.2013 23:04:18] Avisynth input script
---[NoImage] # Источник
---[NoImage] DirectShowSource("F:\Rips\FOTR\The.Lord.of.the.Rings-The Fellowship.of.the.Ring.2001.Blu-ray.Extended.1080p.AVC.Rus.Eng_track1_eng.mkv")
---[NoImage] #-------------------- Информация ---------------------
---[NoImage] # Исходное разрешение: 1920x1080 (YV12p)
---[NoImage] # Обр. до изобр.: left=0, top=140, width=1920, height=800
---[NoImage] # SAR: 1:1 -> 1:1
---[NoImage] # DAR: 16:9 -> 320:133 (ошибка=0%)
---[NoImage] # Обрезано изображения в обрезке с коррекцией: 0.25%
---[NoImage] #-----------------------------------------------------
---[NoImage] # Изменение формы кадра
---[NoImage] Crop (0, 140, 1920, 798)
---[NoImage] BicubicResize (b=0, c=1, 1280, 532)
---[NoImage] Trim(0, 151968) + Trim(152138, 328417)
--[Information] [20.03.2013 23:04:19] Job commandline: "E:\Programs\Redactors\megui\tools\x264\x264.exe" --level 4.1 --pass 2 --bitrate 4500 --stats "F:\Rips\FOTR\1.stats" --deblock -2:-1 --keyint 240 --bframes 10 --b-adapt 2 --ref 11 --vbv-bufsize 62500 --vbv-maxrate 50000 --qcomp 0.7 --no-mbtree --aq-strength 0.8 --merange 32 --me esa --direct auto --subme 10 --trellis 2 --psy-rd 1.10:0 --no-dct-decimate --no-fast-pskip --range tv --colorprim bt709 --transfer bt709 --colormatrix bt709 --zones 288580,328248,b=0.5 --sar 1:1 --output "F:\Rips\FOTR\1.mkv" "F:\Rips\FOTR\1.avs"
--[Information] [20.03.2013 23:04:19] Encoding started
--[Information] [23.03.2013 1:55:40] Standard output stream
--[Information] [23.03.2013 1:55:41] Standard error stream
---[NoImage] avs [info]: 1280x532p 1:1 @ 10000000/417083 fps (cfr)
---[NoImage] x264 [info]: using SAR=1/1
---[NoImage] x264 [info]: using cpu capabilities: MMX2 SSE2Fast FastShuffle SSEMisalign LZCNT
---[NoImage] x264 [info]: profile High, level 4.1
---[NoImage]
---[NoImage] x264 [info]: frame I:2824 Avg QP:14.15 size:114147
---[NoImage] x264 [info]: frame P:70720 Avg QP:16.90 size: 45205
---[NoImage] x264 [info]: frame B:254705 Avg QP:19.33 size: 16411
---[NoImage] x264 [info]: consecutive B-frames: 1.9% 2.3% 5.9% 25.9% 19.8% 30.8% 9.1% 2.5% 0.6% 0.4% 0.6%
---[NoImage] x264 [info]: mb I I16..4: 4.0% 78.4% 17.6%
---[NoImage] x264 [info]: mb P I16..4: 1.3% 15.6% 2.4% P16..4: 32.3% 27.8% 16.8% 0.0% 0.0% skip: 3.9%
---[NoImage] x264 [info]: mb B I16..4: 0.1% 1.3% 0.5% B16..8: 37.5% 15.2% 4.9% direct: 9.1% skip:31.3% L0:43.5% L1:40.6% BI:15.9%
---[NoImage] x264 [info]: 8x8 transform intra:77.8% inter:58.7%
---[NoImage] x264 [info]: direct mvs spatial:98.7% temporal:1.3%
---[NoImage] x264 [info]: coded y,uvDC,uvAC intra: 86.3% 83.8% 63.7% inter: 35.2% 26.4% 12.8%
---[NoImage] x264 [info]: i16 v,h,dc,p: 56% 13% 11% 19%
---[NoImage] x264 [info]: i8 v,h,dc,ddl,ddr,vr,hd,vl,hu: 12% 8% 8% 9% 13% 13% 13% 12% 13%
---[NoImage] x264 [info]: i4 v,h,dc,ddl,ddr,vr,hd,vl,hu: 33% 5% 5% 7% 12% 10% 10% 8% 10%
---[NoImage] x264 [info]: i8c dc,h,v,p: 47% 21% 18% 15%
---[NoImage] x264 [info]: Weighted P-Frames: Y:5.3% UV:2.5%
---[NoImage] x264 [info]: ref P L0: 51.6% 6.8% 15.3% 7.3% 5.4% 4.0% 3.3% 2.0% 1.7% 1.4% 1.1% 0.2% 0.0%
---[NoImage] x264 [info]: ref B L0: 70.1% 14.6% 6.1% 3.1% 2.0% 1.5% 1.2% 0.7% 0.4% 0.2%
---[NoImage] x264 [info]: ref B L1: 92.5% 7.5%
---[NoImage] x264 [info]: kb/s:4498.87
---[NoImage] encoded 328249 frames, 1.79 fps, 4498.87 kb/s
--[Information] Final statistics
---[Information] [23.03.2013 1:55:42] Video Bitrate Desired: 4500 kbit/s
---[Information] [23.03.2013 1:55:42] Video Bitrate Obtained (approximate): 4500 kbit/s
--[Information] [23.03.2013 1:55:42] MediaInfo
---[Information] File: F:\Rips\FOTR\1.mkv
---[Information] General
----[Information] Format: Matroska
----[Information] FormatString: Matroska
----[Information] FileSize: 7701674284
----[Information] PlayTime: 03:48:10.707
---[Information] Video
----[Information] ID: 1
----[Information] StreamOrder: 0
----[Information] Width: 1280
----[Information] Height: 532
----[Information] FrameCount: 328248
----[Information] FrameRate: 23.976
----[Information] FrameRateOriginal:
----[Information] FrameRateMode: CFR
----[Information] ScanType: Progressive
----[Information] Codec: V_MPEG4/ISO/AVC
----[Information] CodecString: AVC
----[Information] Format: AVC
----[Information] AspectRatio: 2.406
----[Information] AspectRatioString: 2.40:1
----[Information] Delay: 0
----[Information] Title:
----[Information] Language: en
----[Information] LanguageString: English
----[Information] Default: Yes
----[Information] DefaultString: Yes
----[Information] Forced: No
----[Information] ForcedString: No
--[Information] [23.03.2013 1:55:42] Postprocessing
---[Information] Deleting intermediate files
----[Information] [23.03.2013 1:55:42] Successfully deleted F:\Rips\FOTR\1.stats
--[Information] [23.03.2013 1:55:42] Job completed
Сэмпл для проверки качества звука и видео. (~58 MB)
-
Властелин колец: Две крепости / The Lord of the Rings: The Two Towers (2002) [Extended Edition]
Страна: США, Новая Зеландия
Студия: New Line Cinema
Жанр: Боевик, фэнтези, приключения
Год выпуска: 2002
Продолжительность: 03:55:24
Перевод: Профессиональный (многоголосый закадровый) Позитив ММ
Cубтитры: русские, английские, украинские
Оригинальная аудиодорожка: английский
Режиссер: Питер Джексон / Peter Jackson
В ролях: Элайджа Вуд, Шон Эстин, Вигго Мортенсен, Иэн МакКеллен, Доминик Монахэн, Билли Бойд, Шон Бин, Орландо Блум, Джон Рис-Дэвис, Кристофер Ли
Описание: Братство распалось, но Кольцо Всевластья должно быть уничтожено. Фродо и Сэм вынуждены доверить свои жизни Голлуму, который взялся провести их к вратам Мордора. Громадная Армия Сарумана приближается: члены братства и их союзники готовы принять бой. Битва за Средиземье продолжается.
Тип релиза: BDRip 720p
Контейнер: MKV
Видео: H.264 (x264), 1280x536p (2.40:1), ~5100 Kbps, 23.976 fps
Аудио#1: Russian (AC3 5.1ch, 448 Kbps) (Позитив ММ)
Аудио#2: English (AC3 5.1ch, 448 Kbps) (Оригинал)
Субтитры#1: Russian (ass) (Стилизованные - Эльфийская речь и пр.)
Субтитры#2: Russian (srt) (Полные - Позитив ММ)
Субтитры#3: Russian (srt) (Полные - Henneth-annun)
Субтитры#4: Ukrainian (srt) (Полные)
Субтитры#5: English (ass) (Стилизованные - Эльфийская речь и пр.)
Субтитры#6: English (srt) (Полные)
Перемотка по главам: Есть

Скриншоты

Источник / Этот рип / Рип от HANSMER-а




Crop

Расчёт / Предпросмотр

До / После

MediaInfo

General
Unique ID : 250719026907891924662909842173689078560 (0xBC9EBA685CF11203BAE9DABF25802320)
Complete name : F:\Rips\TTT\LOTR - (2002) The Two Towers [Extended Edition] 720p.mkv
Format : Matroska
Format version : Version 4 / Version 2
File size : 9.86 GiB
Duration : 3h 55mn
Overall bit rate : 5 998 Kbps
Movie name : The Lord of the Rings: The Two Towers (2002) [Extended Edition]
Encoded date : UTC 2013-04-02 18:40:26
Writing application : mkvmerge v6.1.0 ('Old Devil') built on Mar 2 2013 14:32:37
Writing library : libebml v1.3.0 + libmatroska v1.4.0
Attachment : Yes / Yes / Yes
Video
ID : 1
Format : AVC
Format/Info : Advanced Video Codec
Format profile : [email protected]
Format settings, CABAC : Yes
Format settings, ReFrames : 11 frames
Codec ID : V_MPEG4/ISO/AVC
Duration : 3h 55mn
Bit rate : 5 100 Kbps
Width : 1 280 pixels
Height : 536 pixels
Display aspect ratio : 2.40:1
Frame rate mode : Constant
Frame rate : 23.976 fps
Color space : YUV
Chroma subsampling : 4:2:0
Bit depth : 8 bits
Scan type : Progressive
Bits/(Pixel*Frame) : 0.310
Stream size : 8.19 GiB (83%)
Title : H.264 (x264), 1280x536p (2.4:1), ~5100 Kbps, 23.976 fps (Softcode)
Writing library : x264 core 130 r2273 b3065e6
Encoding settings : cabac=1 / ref=11 / deblock=1:-2:-1 / analyse=0x3:0x113 / me=esa / subme=10 / psy=1 / psy_rd=1.10:0.00 / mixed_ref=1 / me_range=32 / chroma_me=1 / trellis=2 / 8x8dct=1 / cqm=0 / deadzone=21,11 / fast_pskip=0 / chroma_qp_offset=-2 / threads=6 / lookahead_threads=1 / sliced_threads=0 / nr=0 / decimate=0 / interlaced=0 / bluray_compat=0 / constrained_intra=0 / bframes=10 / b_pyramid=2 / b_adapt=2 / b_bias=0 / direct=3 / weightb=1 / open_gop=0 / weightp=2 / keyint=240 / keyint_min=23 / scenecut=40 / intra_refresh=0 / rc_lookahead=40 / rc=2pass / mbtree=0 / bitrate=5100 / ratetol=1.0 / qcomp=0.70 / qpmin=0 / qpmax=69 / qpstep=4 / cplxblur=20.0 / qblur=0.5 / vbv_maxrate=50000 / vbv_bufsize=62500 / nal_hrd=none / ip_ratio=1.40 / pb_ratio=1.30 / aq=1:0.80 / zones=309000,338639,b=0.5
Language : English
Default : Yes
Forced : No
Color primaries : BT.709
Transfer characteristics : BT.709
Matrix coefficients : BT.709
Audio #1
ID : 2
Format : AC-3
Format/Info : Audio Coding 3
Mode extension : CM (complete main)
Format settings, Endianness : Big
Codec ID : A_AC3
Duration : 3h 55mn
Bit rate mode : Constant
Bit rate : 448 Kbps
Channel(s) : 6 channels
Channel positions : Front: L C R, Side: L R, LFE
Sampling rate : 48.0 KHz
Bit depth : 16 bits
Compression mode : Lossy
Stream size : 754 MiB (7%)
Title : AC3 (Dolby) 5.1ch, 448 Kbps (Позитив ММ)
Language : Russian
Default : Yes
Forced : No
Audio #2
ID : 3
Format : AC-3
Format/Info : Audio Coding 3
Mode extension : CM (complete main)
Format settings, Endianness : Big
Codec ID : A_AC3
Duration : 3h 55mn
Bit rate mode : Constant
Bit rate : 448 Kbps
Channel(s) : 6 channels
Channel positions : Front: L C R, Side: L R, LFE
Sampling rate : 48.0 KHz
Bit depth : 16 bits
Compression mode : Lossy
Stream size : 754 MiB (7%)
Title : AC3 (Dolby) 5.1ch, 448 Kbps (Оригинал)
Language : English
Default : No
Forced : No
Text #1
ID : 4
Format : ASS
Codec ID : S_TEXT/ASS
Codec ID/Info : Advanced Sub Station Alpha
Compression mode : Lossless
Title : Стилизованные (Эльфийская речь и пр.)
Language : Russian
Default : Yes
Forced : No
Text #2
ID : 5
Format : UTF-8
Codec ID : S_TEXT/UTF8
Codec ID/Info : UTF-8 Plain Text
Title : Полные (Позитив ММ)
Language : Russian
Default : No
Forced : No
Text #3
ID : 6
Format : UTF-8
Codec ID : S_TEXT/UTF8
Codec ID/Info : UTF-8 Plain Text
Title : Полные (Henneth-annun)
Language : Russian
Default : No
Forced : No
Text #4
ID : 7
Format : UTF-8
Codec ID : S_TEXT/UTF8
Codec ID/Info : UTF-8 Plain Text
Title : Полные
Language : Ukrainian
Default : No
Forced : No
Text #5
ID : 8
Format : ASS
Codec ID : S_TEXT/ASS
Codec ID/Info : Advanced Sub Station Alpha
Compression mode : Lossless
Title : Стилизованные (Эльфийская речь и пр.)
Language : English
Default : No
Forced : No
Text #6
ID : 9
Format : ASS
Codec ID : S_TEXT/ASS
Codec ID/Info : Advanced Sub Station Alpha
Compression mode : Lossless
Title : Полные
Language : English
Default : No
Forced : No
Menu
00:00:00.000 : en: 1. The Foundations of Stone
00:04:08.748 : en: 2. Elven Rope
00:06:10.829 : en: 3. The Taming of Smeagol
00:14:44.967 : en: 4. The Uruk-hai
00:17:06.609 : en: 5. The Three Hunters
00:19:17.948 : en: 6. The Burning of the Westfold
00:23:07.094 : en: 7. Massacre at the Fords of Isen
00:23:58.312 : en: 8. The Banishment of omer
00:27:09.044 : en: 9. On the Trail of the Uruk-hai
00:28:03.181 : en:10. Night Camp at Fangorn
00:31:38.230 : en:11. The Riders of Rohan
00:35:45.518 : en:12. The Fate of Merry and Pippin
00:38:17.879 : en:13. Treebeard
00:41:47.797 : en:14. The Passage of the Marshes
00:50:49.755 : en:15. The White Rider
00:58:19.413 : en:16. The Song of the Entwives
01:00:40.178 : en:17. The Heir of Numenor
01:02:48.306 : en:18. The Black Gate is Closed
01:08:05.999 : en:19. Ent Draft
01:12:41.732 : en:20. The King of the Golden Hall
01:24:17.344 : en:21. The Funeral of Theodred
01:25:41.636 : en:22. Simbelmyne on the Burial Mounds
01:27:34.332 : en:23. The King's Decision
01:30:45.523 : en:24. Brego
01:32:30.587 : en:25. The Ring of Barahir
01:34:31.040 : en:26. A Daughter of Kings
01:35:57.043 : en:27. Exodus from Edoras
01:37:02.316 : en:28. The Forests of Ithilien
01:38:43.960 : en:29. Gollum and Smeagol
01:41:14.819 : en:30. Of Herbs and Stewed Rabbit
01:46:33.994 : en:31. Dwarf Women
01:47:16.787 : en:32. One of the Dunedain
01:49:46.645 : en:33. The Evenstar
01:54:53.201 : en:34. The Wolves of Isengard
02:01:31.390 : en:35. Helm's Deep
02:04:11.509 : en:36. Isengard Unleashed
02:06:47.957 : en:37. The Grace of the Valar
02:08:25.513 : en:38. Arwen's Fate
02:12:08.277 : en:39. The Story Foreseen from Lorien
02:14:34.256 : en:40. The Window on the West
02:18:23.860 : en:41. Sons of the Steward
02:23:03.431 : en:42. The Forbidden Pool
02:30:25.122 : en:43. Aragorn's Return
02:35:58.372 : en:44. Entmoot
02:37:18.244 : en:45. The Glittering Caves
02:40:26.515 : en:46. "Where Is the Horse and the Rider?"
02:42:11.245 : en:47. "Don't Be Hasty, Master Meriadoc!"
02:43:01.920 : en:48. The Host of the Eldar
02:46:36.009 : en:49. The Batter of the Hornburg
02:52:58.391 : en:50. Old Entish
02:54:35.446 : en:51. The Breach of the Deeping Wall
02:58:00.568 : en:52. The Entmoot Decides
02:59:45.715 : en:53. The Retreat to the Hornburg
03:05:48.202 : en:54. Master Peregrin's Plan
03:07:13.287 : en:55. Osgiliath
03:07:48.030 : en:56. The Last March of the Ents
03:10:17.554 : en:57. The Nazgul Attack
03:12:49.539 : en:58. Forth Eorlingas
03:17:28.026 : en:59. The Flooding of Isengard
03:19:54.380 : en:60. The Tales That Really Mattered...
03:24:39.665 : en:61. Fangorn Comes to Helm's Deep
03:25:31.218 : en:62. The Final Tally
03:26:12.758 : en:63. Flotsam and Jetsam
03:28:16.549 : en:64. Farewell to Faramir
03:30:46.407 : en:65. "The Battle for Middle-Earth is About to Begin"
03:32:26.090 : en:66. Gollum's Plan
03:34:50.234 : en:67. End Credits
03:43:46.519 : en:68. Fan Club Credits

Log

-[Information] Log for job1 (video, 2.avs -> )
--[Information] [24.03.2013 18:40:31] Started handling job
--[Information] [24.03.2013 18:40:31] Preprocessing
--[Information] [24.03.2013 18:40:31] Avisynth input script
---[NoImage] # Источник
---[NoImage] DirectShowSource ("F:\Rips\TTT\The.Lord.of.the.Rings-The.Two.Towers.2002.Blu-ray.Extended.1080p.AVC.Rus.Eng_track1_eng.mkv")
---[NoImage] #-------------------- Информация ---------------------
---[NoImage] # Исходное разрешение: 1920x1080 (YV12p)
---[NoImage] # Обр. до изобр.: left=6, top=140, width=1907, height=799
---[NoImage] # SAR: 1:1 -> 1:1
---[NoImage] # DAR: 16:9 -> 160:67 (ошибка=-0.02%)
---[NoImage] # Обрезано изображения в обрезке с коррекцией: 0.18%
---[NoImage] #-----------------------------------------------------
---[NoImage] # Изменение формы кадра
---[NoImage] Crop (6, 140, 1906, 798)
---[NoImage] BicubicResize (b=0, c=1, 1280, 536)
---[NoImage] Trim(0, 153306) + Trim(153451, 338783)
--[Information] [24.03.2013 18:40:32] Job commandline: "E:\Programs\Redactors\megui\tools\x264\x264.exe" --level 4.1 --pass 1 --bitrate 5100 --stats "F:\Rips\TTT\2.stats" --slow-firstpass --deblock -2:-1 --keyint 240 --bframes 10 --b-adapt 2 --ref 11 --vbv-bufsize 62500 --vbv-maxrate 50000 --qcomp 0.7 --no-mbtree --aq-strength 0.8 --merange 32 --me esa --direct auto --subme 10 --trellis 2 --psy-rd 1.10:0 --no-dct-decimate --no-fast-pskip --range tv --colorprim bt709 --transfer bt709 --colormatrix bt709 --zones 309000,338639,b=0.5 --sar 1:1 --output NUL "F:\Rips\TTT\2.avs"
--[Information] [24.03.2013 18:40:32] Encoding started
--[Information] [27.03.2013 0:39:19] Standard output stream
--[Information] [27.03.2013 0:39:19] Standard error stream
---[NoImage] avs [info]: 1280x536p 1:1 @ 10000000/417083 fps (cfr)
---[NoImage] x264 [info]: using SAR=1/1
---[NoImage] x264 [info]: using cpu capabilities: MMX2 SSE2Fast SSEMisalign LZCNT
---[NoImage] x264 [info]: profile High, level 4.1
---[NoImage]
---[NoImage] x264 [info]: frame I:2567 Avg QP:17.44 size: 96749
---[NoImage] x264 [info]: frame P:74175 Avg QP:19.14 size: 45662
---[NoImage] x264 [info]: frame B:261898 Avg QP:21.47 size: 18875
---[NoImage] x264 [info]: consecutive B-frames: 1.7% 2.7% 6.6% 30.3% 15.1% 32.4% 4.6% 3.4% 1.3% 0.7% 1.3%
---[NoImage] x264 [info]: mb I I16..4: 4.3% 82.3% 13.4%
---[NoImage] x264 [info]: mb P I16..4: 1.9% 16.7% 2.0% P16..4: 33.4% 27.4% 15.8% 0.0% 0.0% skip: 2.9%
---[NoImage] x264 [info]: mb B I16..4: 0.3% 1.6% 0.3% B16..8: 39.9% 15.2% 5.4% direct:10.3% skip:27.0% L0:42.5% L1:41.6% BI:16.0%
---[NoImage] x264 [info]: final ratefactor: 17.18
---[NoImage] x264 [info]: 8x8 transform intra:79.5% inter:60.9%
---[NoImage] x264 [info]: direct mvs spatial:100.0% temporal:0.0%
---[NoImage] x264 [info]: coded y,uvDC,uvAC intra: 87.6% 77.1% 43.8% inter: 42.9% 21.9% 5.5%
---[NoImage] x264 [info]: i16 v,h,dc,p: 75% 6% 6% 12%
---[NoImage] x264 [info]: i8 v,h,dc,ddl,ddr,vr,hd,vl,hu: 12% 7% 6% 10% 15% 14% 13% 12% 12%
---[NoImage] x264 [info]: i4 v,h,dc,ddl,ddr,vr,hd,vl,hu: 11% 5% 3% 9% 17% 16% 15% 11% 12%
---[NoImage] x264 [info]: i8c dc,h,v,p: 41% 24% 18% 16%
---[NoImage] x264 [info]: Weighted P-Frames: Y:4.1% UV:1.1%
---[NoImage] x264 [info]: ref P L0: 45.4% 12.4% 17.3% 6.4% 5.1% 3.6% 3.1% 1.9% 1.7% 1.5% 1.5% 0.2% 0.0%
---[NoImage] x264 [info]: ref B L0: 73.1% 11.8% 6.1% 2.8% 1.9% 1.5% 1.2% 0.8% 0.5% 0.2%
---[NoImage] x264 [info]: ref B L1: 93.2% 6.8%
---[NoImage] x264 [info]: kb/s:4858.98
---[NoImage] encoded 338640 frames, 1.74 fps, 4858.98 kb/s
--[Information] [27.03.2013 0:39:19] Postprocessing
---[Information] Deleting intermediate files
--[Information] [27.03.2013 0:39:19] Job completed
-[Information] Log for job2 (video, 2.avs -> 2.mkv)
--[Information] [27.03.2013 0:39:19] Started handling job
--[Information] [27.03.2013 0:39:19] Preprocessing
--[Information] [27.03.2013 0:39:19] Avisynth input script
---[NoImage] # Источник
---[NoImage] DirectShowSource ("F:\Rips\TTT\The.Lord.of.the.Rings-The.Two.Towers.2002.Blu-ray.Extended.1080p.AVC.Rus.Eng_track1_eng.mkv")
---[NoImage] #-------------------- Информация ---------------------
---[NoImage] # Исходное разрешение: 1920x1080 (YV12p)
---[NoImage] # Обр. до изобр.: left=6, top=140, width=1907, height=799
---[NoImage] # SAR: 1:1 -> 1:1
---[NoImage] # DAR: 16:9 -> 160:67 (ошибка=-0.02%)
---[NoImage] # Обрезано изображения в обрезке с коррекцией: 0.18%
---[NoImage] #-----------------------------------------------------
---[NoImage] # Изменение формы кадра
---[NoImage] Crop (6, 140, 1906, 798)
---[NoImage] BicubicResize (b=0, c=1, 1280, 536)
---[NoImage] Trim(0, 153306) + Trim(153451, 338783)
--[Information] [27.03.2013 0:39:21] Job commandline: "E:\Programs\Redactors\megui\tools\x264\x264.exe" --level 4.1 --pass 2 --bitrate 5100 --stats "F:\Rips\TTT\2.stats" --deblock -2:-1 --keyint 240 --bframes 10 --b-adapt 2 --ref 11 --vbv-bufsize 62500 --vbv-maxrate 50000 --qcomp 0.7 --no-mbtree --aq-strength 0.8 --merange 32 --me esa --direct auto --subme 10 --trellis 2 --psy-rd 1.10:0 --no-dct-decimate --no-fast-pskip --range tv --colorprim bt709 --transfer bt709 --colormatrix bt709 --zones 309000,338639,b=0.5 --sar 1:1 --output "F:\Rips\TTT\2.mkv" "F:\Rips\TTT\2.avs"
--[Information] [27.03.2013 0:39:21] Encoding started
--[Information] [29.03.2013 6:22:12] Standard output stream
--[Information] [29.03.2013 6:22:13] Standard error stream
---[NoImage] avs [info]: 1280x536p 1:1 @ 10000000/417083 fps (cfr)
---[NoImage] x264 [info]: using SAR=1/1
---[NoImage] x264 [info]: using cpu capabilities: MMX2 SSE2Fast SSEMisalign LZCNT
---[NoImage] x264 [info]: profile High, level 4.1
---[NoImage]
---[NoImage] x264 [info]: frame I:2567 Avg QP:16.28 size:111639
---[NoImage] x264 [info]: frame P:74175 Avg QP:19.07 size: 47897
---[NoImage] x264 [info]: frame B:261898 Avg QP:21.34 size: 19714
---[NoImage] x264 [info]: consecutive B-frames: 1.7% 2.7% 6.6% 30.3% 15.1% 32.4% 4.6% 3.4% 1.3% 0.7% 1.3%
---[NoImage] x264 [info]: mb I I16..4: 3.8% 82.5% 13.7%
---[NoImage] x264 [info]: mb P I16..4: 0.8% 17.2% 2.0% P16..4: 31.8% 27.8% 16.2% 0.0% 0.0% skip: 4.3%
---[NoImage] x264 [info]: mb B I16..4: 0.1% 1.6% 0.3% B16..8: 39.0% 15.7% 5.7% direct:10.6% skip:27.0% L0:42.0% L1:40.9% BI:17.0%
---[NoImage] x264 [info]: 8x8 transform intra:84.0% inter:61.0%
---[NoImage] x264 [info]: direct mvs spatial:98.9% temporal:1.1%
---[NoImage] x264 [info]: coded y,uvDC,uvAC intra: 93.0% 78.4% 44.9% inter: 44.6% 23.4% 6.0%
---[NoImage] x264 [info]: i16 v,h,dc,p: 47% 14% 12% 27%
---[NoImage] x264 [info]: i8 v,h,dc,ddl,ddr,vr,hd,vl,hu: 12% 7% 6% 10% 15% 14% 13% 12% 12%
---[NoImage] x264 [info]: i4 v,h,dc,ddl,ddr,vr,hd,vl,hu: 11% 5% 3% 9% 17% 16% 15% 11% 12%
---[NoImage] x264 [info]: i8c dc,h,v,p: 41% 24% 19% 16%
---[NoImage] x264 [info]: Weighted P-Frames: Y:4.2% UV:1.1%
---[NoImage] x264 [info]: ref P L0: 49.7% 8.7% 15.1% 7.5% 5.4% 4.1% 3.2% 2.0% 1.7% 1.4% 1.1% 0.1% 0.0%
---[NoImage] x264 [info]: ref B L0: 73.6% 12.8% 5.4% 2.7% 1.9% 1.4% 1.1% 0.7% 0.4% 0.2%
---[NoImage] x264 [info]: ref B L1: 93.5% 6.5%
---[NoImage] x264 [info]: kb/s:5098.96
---[NoImage] encoded 338640 frames, 1.75 fps, 5098.97 kb/s
--[Information] Final statistics
---[Information] [29.03.2013 6:22:14] Video Bitrate Desired: 5100 kbit/s
---[Information] [29.03.2013 6:22:14] Video Bitrate Obtained (approximate): 5100 kbit/s
--[Information] [29.03.2013 6:22:15] MediaInfo
---[Information] File: F:\Rips\TTT\2.mkv
---[Information] General
----[Information] Format: Matroska
----[Information] FormatString: Matroska
----[Information] FileSize: 9005001381
----[Information] PlayTime: 03:55:24.099
---[Information] Video
----[Information] ID: 1
----[Information] StreamOrder: 0
----[Information] Width: 1280
----[Information] Height: 536
----[Information] FrameCount: 338639
----[Information] FrameRate: 23.976
----[Information] FrameRateOriginal:
----[Information] FrameRateMode: CFR
----[Information] ScanType: Progressive
----[Information] Codec: V_MPEG4/ISO/AVC
----[Information] CodecString: AVC
----[Information] Format: AVC
----[Information] AspectRatio: 2.388
----[Information] AspectRatioString: 2.40:1
----[Information] Delay: 0
----[Information] Title:
----[Information] Language: en
----[Information] LanguageString: English
----[Information] Default: Yes
----[Information] DefaultString: Yes
----[Information] Forced: No
----[Information] ForcedString: No
--[Information] [29.03.2013 6:22:15] Postprocessing
---[Information] Deleting intermediate files
----[Information] [29.03.2013 6:22:15] Successfully deleted F:\Rips\TTT\2.stats
--[Information] [29.03.2013 6:22:15] Job completed
Сэмпл для проверки качества звука и видео. (~49 MB)
-
Властелин колец: Возвращение Короля / The Lord of the Rings: The Return of the King (2003) [Extended Edition]
Страна: США, Новая Зеландия
Студия: New Line Cinema
Жанр: Боевик, фэнтези, приключения
Год выпуска: 2003
Продолжительность: 04:23:10
Перевод: Профессиональный (многоголосый закадровый) Позитив ММ
Cубтитры: русские, английские, украинские
Оригинальная аудиодорожка: английский
Режиссер: Питер Джексон / Peter Jackson
В ролях: Элайджа Вуд, Шон Эстин, Вигго Мортенсен, Иэн МакКеллен, Доминик Монахэн, Билли Бойд, Шон Бин, Орландо Блум, Джон Рис-Дэвис, Кристофер Ли
Описание: Последняя часть трилогии о Кольце Всевластия и о героях, взявших на себя бремя спасения Средиземья. Повелитель сил Тьмы Саурон направляет свои бесчисленные рати под стены Минас-Тирита, крепости Последней Надежды. Он предвкушает близкую победу, но именно это и мешает ему заметить две крохотные фигурки — хоббитов, приближающихся к Роковой Горе, где им предстоит уничтожить Кольцо Всевластия. Улыбнется ли им счастье?
Тип релиза: BDRip 720p
Контейнер: MKV
Видео: H.264 (x264), 1280x532p (2.40:1), ~5300 Kbps, 23.976 fps
Аудио#1: Russian (AC3 5.1ch, 448 Kbps) (Позитив ММ)
Аудио#2: English (AC3 5.1ch, 448 Kbps) (Оригинал)
Субтитры#1: Russian (ass) (Стилизованные - Эльфийская речь и пр.)
Субтитры#2: Russian (srt) (Полные - Позитив ММ)
Субтитры#3: Russian (srt) (Полные - Henneth-annun)
Субтитры#4: Ukrainian (srt) (Полные)
Субтитры#5: English (ass) (Стилизованные - Эльфийская речь и пр.)
Субтитры#6: English (srt) (Полные)
Перемотка по главам: Есть

Скриншоты

Источник / Этот рип / Рип от HANSMER-а




Crop

Расчёт / Предпросмотр

До / После

MediaInfo

General
Unique ID : 210135683384753180247349694114752099985 (0x9E16A916A049372ABA78331A2CD3F691)
Complete name : F:\Rips\ROTK\LOTR - (2003) The Return of the King [Extended Edition] 720p.mkv
Format : Matroska
Format version : Version 4 / Version 2
File size : 11.4 GiB
Duration : 4h 23mn
Overall bit rate : 6 198 Kbps
Movie name : The Lord of the Rings: The Return of the King (2003) [Extended Edition]
Encoded date : UTC 2013-04-06 07:12:42
Writing application : mkvmerge v6.1.0 ('Old Devil') built on Mar 2 2013 14:32:37
Writing library : libebml v1.3.0 + libmatroska v1.4.0
Attachment : Yes / Yes / Yes
Video
ID : 1
Format : AVC
Format/Info : Advanced Video Codec
Format profile : [email protected]
Format settings, CABAC : Yes
Format settings, ReFrames : 11 frames
Codec ID : V_MPEG4/ISO/AVC
Duration : 4h 23mn
Bit rate : 5 300 Kbps
Width : 1 280 pixels
Height : 532 pixels
Display aspect ratio : 2.40:1
Frame rate mode : Constant
Frame rate : 23.976 fps
Color space : YUV
Chroma subsampling : 4:2:0
Bit depth : 8 bits
Scan type : Progressive
Bits/(Pixel*Frame) : 0.325
Stream size : 9.52 GiB (84%)
Title : H.264 (x264), 1280x532p (2.4:1), ~5300 Kbps, 23.976 fps (Softcode)
Writing library : x264 core 130 r2273 b3065e6
Encoding settings : cabac=1 / ref=11 / deblock=1:-2:-1 / analyse=0x3:0x113 / me=esa / subme=10 / psy=1 / psy_rd=1.10:0.00 / mixed_ref=1 / me_range=32 / chroma_me=1 / trellis=2 / 8x8dct=1 / cqm=0 / deadzone=21,11 / fast_pskip=0 / chroma_qp_offset=-2 / threads=6 / lookahead_threads=1 / sliced_threads=0 / nr=0 / decimate=0 / interlaced=0 / bluray_compat=0 / constrained_intra=0 / bframes=10 / b_pyramid=2 / b_adapt=2 / b_bias=0 / direct=3 / weightb=1 / open_gop=0 / weightp=2 / keyint=240 / keyint_min=23 / scenecut=40 / intra_refresh=0 / rc_lookahead=40 / rc=2pass / mbtree=0 / bitrate=5300 / ratetol=1.0 / qcomp=0.70 / qpmin=0 / qpmax=69 / qpstep=4 / cplxblur=20.0 / qblur=0.5 / vbv_maxrate=50000 / vbv_bufsize=62500 / nal_hrd=none / ip_ratio=1.40 / pb_ratio=1.30 / aq=1:0.80 / zones=347324,378573,b=0.5
Language : English
Default : Yes
Forced : No
Color primaries : BT.709
Transfer characteristics : BT.709
Matrix coefficients : BT.709
Audio #1
ID : 2
Format : AC-3
Format/Info : Audio Coding 3
Mode extension : CM (complete main)
Format settings, Endianness : Big
Codec ID : A_AC3
Duration : 4h 23mn
Bit rate mode : Constant
Bit rate : 448 Kbps
Channel(s) : 6 channels
Channel positions : Front: L C R, Side: L R, LFE
Sampling rate : 48.0 KHz
Bit depth : 16 bits
Compression mode : Lossy
Stream size : 843 MiB (7%)
Title : AC3 (Dolby) 5.1ch, 448 Kbps (Позитив ММ)
Language : Russian
Default : Yes
Forced : No
Audio #2
ID : 3
Format : AC-3
Format/Info : Audio Coding 3
Mode extension : CM (complete main)
Format settings, Endianness : Big
Codec ID : A_AC3
Duration : 4h 23mn
Bit rate mode : Constant
Bit rate : 448 Kbps
Channel(s) : 6 channels
Channel positions : Front: L C R, Side: L R, LFE
Sampling rate : 48.0 KHz
Bit depth : 16 bits
Compression mode : Lossy
Stream size : 843 MiB (7%)
Title : AC3 (Dolby) 5.1ch, 448 Kbps (Оригинал)
Language : English
Default : No
Forced : No
Text #1
ID : 4
Format : ASS
Codec ID : S_TEXT/ASS
Codec ID/Info : Advanced Sub Station Alpha
Compression mode : Lossless
Title : Стилизованные (Эльфийская речь и пр.)
Language : Russian
Default : Yes
Forced : No
Text #2
ID : 5
Format : UTF-8
Codec ID : S_TEXT/UTF8
Codec ID/Info : UTF-8 Plain Text
Title : Полные (Позитив ММ)
Language : Russian
Default : No
Forced : No
Text #3
ID : 6
Format : UTF-8
Codec ID : S_TEXT/UTF8
Codec ID/Info : UTF-8 Plain Text
Title : Полные (Henneth-annun)
Language : Russian
Default : No
Forced : No
Text #4
ID : 7
Format : UTF-8
Codec ID : S_TEXT/UTF8
Codec ID/Info : UTF-8 Plain Text
Title : Полные
Language : Ukrainian
Default : No
Forced : No
Text #5
ID : 8
Format : ASS
Codec ID : S_TEXT/ASS
Codec ID/Info : Advanced Sub Station Alpha
Compression mode : Lossless
Title : Стилизованные (Эльфийская речь и пр.)
Language : English
Default : No
Forced : No
Text #6
ID : 9
Format : ASS
Codec ID : S_TEXT/ASS
Codec ID/Info : Advanced Sub Station Alpha
Compression mode : Lossless
Title : Полные
Language : English
Default : No
Forced : No
Menu
00:00:00.000 : en: 1. The Finding of the Ring
00:06:24.342 : en: 2. Journey to the Cross-Roads
00:09:21.394 : en: 3. The Road to Isengard
00:11:21.848 : en: 4. The Voice of Saruman
00:18:23.311 : en: 5. Return to Edoras
00:23:05.009 : en: 6. Gollum's Villany
00:27:03.330 : en: 7. Eowyn's Dream
00:29:00.697 : en: 8. The Palantir
00:37:06.433 : en: 9. Arwen's Vision
00:40:02.567 : en:10. The Reforging of Narsil
00:42:03.229 : en:11. Minas Tirith
00:47:52.203 : en:12. The Decline of Gondor
00:50:18.641 : en:13. Cross-Roads of the Fallen King
00:52:18.761 : en:14. "The Deep Breath Before the Plunge"
00:55:35.332 : en:15. Minas Morgul
00:59:36.406 : en:16. Sam's Warning
01:00:23.703 : en:17. Pippin's Task
01:00:50.605 : en:18. Osgiliath Invaded
01:04:30.075 : en:19. The Lighting of the Beacons
01:07:16.032 : en:20. Theoden's Decision
01:10:35.314 : en:21. The Fall of Osgiliath
01:14:54.824 : en:22. The Wizard's Pupil
01:17:21.971 : en:23. The Stairs of Cirith Ungol
01:19:21.799 : en:24. "Courage Is the Best Defense"
01:20:01.088 : en:25. Peregrin of the Tower Guard
01:21:26.799 : en:26. Allegiance to Denethor
01:23:48.941 : en:27. The Parting of Sam and Frodo
01:29:08.593 : en:28. The Sacrifice of Faramir
01:33:57.590 : en:29. Marshalling at Dunharrow
01:38:08.049 : en:30. Anduril - Flame of the West
01:42:49.705 : en:31. Aragorn Takes the Paths of the Dead
01:45:34.245 : en:32. "No More Despair"
01:46:57.453 : en:33. Dwimorberg - the Haunted Mountain
01:49:24.433 : en:34. The Muster of Rohan
01:51:09.997 : en:35. The Paths of the Dead
01:58:39.696 : en:36. The Siege of Gondor
02:07:35.494 : en:37. The Corsairs of Umbar
02:08:36.773 : en:38. Shelob's Lair
02:17:44.445 : en:39. Merry's Simple Courage
02:19:34.764 : en:40. Grond - The Hammer of the Underworld
02:20:11.133 : en:41. The Tomb of the Stewards
02:21:44.769 : en:42. Breaking the Gate of Gondor
02:22:51.585 : en:43. The Choices of Master Samwise
02:28:53.322 : en:44. Denethor's Madness
02:29:58.637 : en:45. The Witch King's Hour
02:32:23.657 : en:46. The Ride of the Rohirrim
02:36:38.078 : en:47. The Pyre of Denethor
02:38:45.163 : en:48. The Battle of Pelennor Fields
02:43:40.708 : en:49. "A Far Green Country"
02:45:11.132 : en:50. The Nazugl and His Prey
02:46:57.071 : en:51. The Black Ships
02:47:49.498 : en:52. Shieldmaiden of Rohan
02:48:33.751 : en:53. Victory at Minas Tirith
02:51:09.448 : en:54. The Passing of Theoden
02:53:12.154 : en:55. Oaths Fulfilled
02:54:19.096 : en:56. The Houses of Healing
02:56:35.107 : en:57. Pippin Looks After Merry
02:57:27.159 : en:58. The Tower of Cirith Ungol
03:04:23.074 : en:59. The Last Debate
03:06:05.427 : en:60. Aragorn Masters the Palantir
03:07:34.516 : en:61. The Captain and the White Lady
03:08:24.649 : en:62. In the Company of Orcs
03:12:06.037 : en:63. The Land of Shadow
03:16:17.747 : en:64. The Mouth of Sauron
03:19:33.651 : en:65. The Black Gate Opens
03:23:07.448 : en:66. "I Can't Carry It for You... But I Can Carry You"
03:25:20.247 : en:67. The Last Move
03:26:23.352 : en:68. Mount Doom
03:28:19.426 : en:69. "The Eagles Are Coming!"
03:28:53.752 : en:70. The Crack of Doom
03:34:32.006 : en:71. Sauron Defeated
03:36:45.390 : en:72. The End of All Things
03:40:14.390 : en:73. The Fellowship Reunited
03:42:37.491 : en:74. The Return of the King
03:47:30.534 : en:75. Homeward Bound
03:52:12.441 : en:76. The Grey Havens
04:01:31.041 : en:77. End Credits
04:12:38.457 : en:78. Fan Club Credits

Log

-[Information] Log for job3 (video, 3.avs -> )
--[Information] [29.03.2013 19:59:58] Started handling job
--[Information] [29.03.2013 19:59:58] Preprocessing
--[Information] [29.03.2013 19:59:58] Avisynth input script
---[NoImage] # Источник
---[NoImage] DirectShowSource ("F:\Rips\ROTK\The.Lord.of.the.Rings-The.Return.of.the.King.2003.Blu-ray.Extended.1080p.AVC.Rus.Eng_track1_eng.mkv")
---[NoImage] #-------------------- Информация ---------------------
---[NoImage] # Исходное разрешение: 1920x1080 (YV12p)
---[NoImage] # Обр. до изобр.: left=1, top=141, width=1918, height=797
---[NoImage] # SAR: 1:1 -> 1:1
---[NoImage] # DAR: 16:9 -> 320:133 (ошибка=-0.04%)
---[NoImage] # Обрезано изображения в обрезке с коррекцией: 0.23%
---[NoImage] #-----------------------------------------------------
---[NoImage] # Изменение формы кадра
---[NoImage] Crop (2, 142, 1916, 796)
---[NoImage] BicubicResize (b=0, c=1, 1280, 532)
---[NoImage] Trim(0, 183541) + Trim(183686, 378717)
--[Information] [29.03.2013 19:59:58] Job commandline: "E:\Programs\Redactors\megui\tools\x264\x264.exe" --level 4.1 --pass 1 --bitrate 5300 --stats "F:\Rips\ROTK\3.stats" --slow-firstpass --deblock -2:-1 --keyint 240 --bframes 10 --b-adapt 2 --ref 11 --vbv-bufsize 62500 --vbv-maxrate 50000 --qcomp 0.7 --no-mbtree --aq-strength 0.8 --merange 32 --me esa --direct auto --subme 10 --trellis 2 --psy-rd 1.10:0 --no-dct-decimate --no-fast-pskip --range tv --colorprim bt709 --transfer bt709 --colormatrix bt709 --zones 347324,378573,b=0.5 --sar 1:1 --output NUL "F:\Rips\ROTK\3.avs"
--[Information] [29.03.2013 19:59:58] Encoding started
--[Information] [01.04.2013 16:55:06] Standard output stream
--[Information] [01.04.2013 16:55:06] Standard error stream
---[NoImage] avs [info]: 1280x532p 1:1 @ 10000000/417083 fps (cfr)
---[NoImage] x264 [info]: using SAR=1/1
---[NoImage] x264 [info]: using cpu capabilities: MMX2 SSE2Fast SSEMisalign LZCNT
---[NoImage] x264 [info]: profile High, level 4.1
---[NoImage]
---[NoImage] x264 [info]: frame I:2733 Avg QP:18.11 size:103529
---[NoImage] x264 [info]: frame P:82772 Avg QP:19.95 size: 49438
---[NoImage] x264 [info]: frame B:293069 Avg QP:21.96 size: 20442
---[NoImage] x264 [info]: consecutive B-frames: 1.7% 2.5% 9.3% 24.6% 17.2% 32.4% 5.7% 3.5% 1.6% 0.9% 0.6%
---[NoImage] x264 [info]: mb I I16..4: 1.8% 83.9% 14.2%
---[NoImage] x264 [info]: mb P I16..4: 0.5% 17.6% 2.6% P16..4: 31.5% 27.4% 16.5% 0.0% 0.0% skip: 3.9%
---[NoImage] x264 [info]: mb B I16..4: 0.0% 1.7% 0.5% B16..8: 40.4% 15.8% 6.2% direct: 9.5% skip:25.9% L0:42.4% L1:43.6% BI:14.0%
---[NoImage] x264 [info]: final ratefactor: 17.97
---[NoImage] x264 [info]: 8x8 transform intra:82.5% inter:60.4%
---[NoImage] x264 [info]: direct mvs spatial:99.9% temporal:0.1%
---[NoImage] x264 [info]: coded y,uvDC,uvAC intra: 92.7% 73.4% 37.4% inter: 45.3% 21.1% 4.8%
---[NoImage] x264 [info]: i16 v,h,dc,p: 25% 12% 12% 50%
---[NoImage] x264 [info]: i8 v,h,dc,ddl,ddr,vr,hd,vl,hu: 10% 7% 6% 10% 15% 14% 14% 12% 12%
---[NoImage] x264 [info]: i4 v,h,dc,ddl,ddr,vr,hd,vl,hu: 32% 4% 4% 7% 13% 11% 11% 9% 9%
---[NoImage] x264 [info]: i8c dc,h,v,p: 38% 26% 20% 16%
---[NoImage] x264 [info]: Weighted P-Frames: Y:5.0% UV:2.1%
---[NoImage] x264 [info]: ref P L0: 43.4% 12.7% 17.0% 6.2% 5.6% 3.7% 3.6% 2.0% 2.0% 1.6% 1.6% 0.3% 0.0%
---[NoImage] x264 [info]: ref B L0: 72.7% 12.0% 5.3% 2.9% 2.1% 1.8% 1.4% 0.9% 0.6% 0.3%
---[NoImage] x264 [info]: ref B L1: 93.5% 6.5%
---[NoImage] x264 [info]: kb/s:5252.03
---[NoImage] encoded 378574 frames, 1.55 fps, 5252.03 kb/s
--[Information] [01.04.2013 16:55:06] Postprocessing
---[Information] Deleting intermediate files
--[Information] [01.04.2013 16:55:06] Job completed
-[Information] Log for job4 (video, 3.avs -> 3.mkv)
--[Information] [01.04.2013 16:55:06] Started handling job
--[Information] [01.04.2013 16:55:06] Preprocessing
--[Information] [01.04.2013 16:55:07] Avisynth input script
---[NoImage] # Источник
---[NoImage] DirectShowSource ("F:\Rips\ROTK\The.Lord.of.the.Rings-The.Return.of.the.King.2003.Blu-ray.Extended.1080p.AVC.Rus.Eng_track1_eng.mkv")
---[NoImage] #-------------------- Информация ---------------------
---[NoImage] # Исходное разрешение: 1920x1080 (YV12p)
---[NoImage] # Обр. до изобр.: left=1, top=141, width=1918, height=797
---[NoImage] # SAR: 1:1 -> 1:1
---[NoImage] # DAR: 16:9 -> 320:133 (ошибка=-0.04%)
---[NoImage] # Обрезано изображения в обрезке с коррекцией: 0.23%
---[NoImage] #-----------------------------------------------------
---[NoImage] # Изменение формы кадра
---[NoImage] Crop (2, 142, 1916, 796)
---[NoImage] BicubicResize (b=0, c=1, 1280, 532)
---[NoImage] Trim(0, 183541) + Trim(183686, 378717)
--[Information] [01.04.2013 16:55:08] Job commandline: "E:\Programs\Redactors\megui\tools\x264\x264.exe" --level 4.1 --pass 2 --bitrate 5300 --stats "F:\Rips\ROTK\3.stats" --deblock -2:-1 --keyint 240 --bframes 10 --b-adapt 2 --ref 11 --vbv-bufsize 62500 --vbv-maxrate 50000 --qcomp 0.7 --no-mbtree --aq-strength 0.8 --merange 32 --me esa --direct auto --subme 10 --trellis 2 --psy-rd 1.10:0 --no-dct-decimate --no-fast-pskip --range tv --colorprim bt709 --transfer bt709 --colormatrix bt709 --zones 347324,378573,b=0.5 --sar 1:1 --output "F:\Rips\ROTK\3.mkv" "F:\Rips\ROTK\3.avs"
--[Information] [01.04.2013 16:55:08] Encoding started
--[Information] [04.04.2013 13:45:25] Standard output stream
--[Information] [04.04.2013 13:45:25] Standard error stream
---[NoImage] avs [info]: 1280x532p 1:1 @ 10000000/417083 fps (cfr)
---[NoImage] x264 [info]: using SAR=1/1
---[NoImage] x264 [info]: using cpu capabilities: MMX2 SSE2Fast SSEMisalign LZCNT
---[NoImage] x264 [info]: profile High, level 4.1
---[NoImage]
---[NoImage] x264 [info]: frame I:2733 Avg QP:16.87 size:117915
---[NoImage] x264 [info]: frame P:82772 Avg QP:19.94 size: 50133
---[NoImage] x264 [info]: frame B:293069 Avg QP:21.87 size: 20428
---[NoImage] x264 [info]: consecutive B-frames: 1.7% 2.5% 9.3% 24.6% 17.2% 32.4% 5.7% 3.5% 1.6% 0.9% 0.6%
---[NoImage] x264 [info]: mb I I16..4: 1.2% 84.2% 14.7%
---[NoImage] x264 [info]: mb P I16..4: 0.5% 17.7% 2.6% P16..4: 30.6% 27.9% 16.8% 0.0% 0.0% skip: 3.9%
---[NoImage] x264 [info]: mb B I16..4: 0.0% 1.6% 0.6% B16..8: 40.6% 16.2% 6.1% direct: 9.9% skip:25.0% L0:42.7% L1:42.9% BI:14.3%
---[NoImage] x264 [info]: 8x8 transform intra:82.2% inter:60.3%
---[NoImage] x264 [info]: direct mvs spatial:97.3% temporal:2.7%
---[NoImage] x264 [info]: coded y,uvDC,uvAC intra: 93.1% 74.8% 38.2% inter: 46.3% 21.7% 4.9%
---[NoImage] x264 [info]: i16 v,h,dc,p: 28% 12% 10% 50%
---[NoImage] x264 [info]: i8 v,h,dc,ddl,ddr,vr,hd,vl,hu: 11% 7% 6% 10% 15% 14% 14% 12% 12%
---[NoImage] x264 [info]: i4 v,h,dc,ddl,ddr,vr,hd,vl,hu: 33% 4% 3% 7% 13% 11% 11% 9% 9%
---[NoImage] x264 [info]: i8c dc,h,v,p: 37% 26% 20% 16%
---[NoImage] x264 [info]: Weighted P-Frames: Y:5.1% UV:2.1%
---[NoImage] x264 [info]: ref P L0: 47.1% 8.7% 15.9% 7.8% 5.8% 4.4% 3.5% 2.2% 1.8% 1.5% 1.2% 0.2% 0.0%
---[NoImage] x264 [info]: ref B L0: 72.4% 12.6% 5.6% 3.0% 2.1% 1.6% 1.3% 0.8% 0.4% 0.2%
---[NoImage] x264 [info]: ref B L1: 93.5% 6.5%
---[NoImage] x264 [info]: kb/s:5298.96
---[NoImage] encoded 378574 frames, 1.53 fps, 5298.96 kb/s
--[Information] Final statistics
---[Information] [04.04.2013 13:45:27] Video Bitrate Desired: 5300 kbit/s
---[Information] [04.04.2013 13:45:27] Video Bitrate Obtained (approximate): 5300 kbit/s
--[Information] [04.04.2013 13:45:28] MediaInfo
---[Information] File: F:\Rips\ROTK\3.mkv
---[Information] General
----[Information] Format: Matroska
----[Information] FormatString: Matroska
----[Information] FileSize: 10461649740
----[Information] PlayTime: 04:23:09.678
---[Information] Video
----[Information] ID: 1
----[Information] StreamOrder: 0
----[Information] Width: 1280
----[Information] Height: 532
----[Information] FrameCount: 378573
----[Information] FrameRate: 23.976
----[Information] FrameRateOriginal:
----[Information] FrameRateMode: CFR
----[Information] ScanType: Progressive
----[Information] Codec: V_MPEG4/ISO/AVC
----[Information] CodecString: AVC
----[Information] Format: AVC
----[Information] AspectRatio: 2.406
----[Information] AspectRatioString: 2.40:1
----[Information] Delay: 0
----[Information] Title:
----[Information] Language: en
----[Information] LanguageString: English
----[Information] Default: Yes
----[Information] DefaultString: Yes
----[Information] Forced: No
----[Information] ForcedString: No
--[Information] [04.04.2013 13:45:28] Postprocessing
---[Information] Deleting intermediate files
----[Information] [04.04.2013 13:45:28] Successfully deleted F:\Rips\ROTK\3.stats
--[Information] [04.04.2013 13:45:28] Job completed
Сэмпл для проверки качества звука и видео. (~51 MB)
Приятного просмотра! Не забываем говорить спасибо!
Other forum [Profile] [PM]
Similar theme
Forum Topic Author Torrent Replies Last Post
./templates/default/images/folder_dl.gif Техническая и научно-популярная литература Чарльз Миллс | Властвующая элита (2007) [PDF] Omen
0 | 1

0 | 651

2

2015-01-19 22:51
Omen Latest
./templates/default/images/folder_dl.gif Зарубежное кино (HD Video) Властелин Колец: Возвращение Короля / The Lord of The Rings: Return of The King (Питер Джексон) [2003 г., боевик, приключения, фэнтези, экранизация, BDRip-HEVC 2160p, HDR] Dagel(tm)
1 | 0

0 | 1012

0

2021-01-25 18:53
Dagel(tm) Latest
Display posts from previous:    
Reply to topic

The time now is: Today 11:19

All times are GMT + 3 Hours



You cannot post new topics in this forum
You cannot reply to topics in this forum
You cannot edit your posts in this forum
You cannot delete your posts in this forum
You cannot vote in polls in this forum
You cannot attach files in this forum
You cannot download files in this forum