Today is a free download without charge Download

Ангел или демон (2013) [1 сезон: 1-2 серии из 40 ] SATRip

Reply to topic
 
Author
Message

UndegraundMen ®

Longevity: 8 years 9 months

Posts: 25145

Торрент-статистика

Post 06-Apr-2013 00:09

[Quote]

Ангел или демон (2013) SATRip«На чьей ты стороне?»- Русское название: Ангел или демон
Год выпуска: 2013
Жанр: Мистика, Триллер, Молодёжный-
Дата российской премьеры: 05.04.2013-Режиссеры: Марк Горобец, Стас Иванов
Актеры: Анна Андрусенко, Кирилл Запорожский, Сергей Чирков, Алексей Комашко, Татьяна Федоровская, Анастасия Стежко, Анна Скиданова, Анфиса Вистингаузен, Валерий Панков, Сергей Борисов (III), Марцин Руй, Данила Якушев, Ярослав Бойко, Артём Яковлев (II), Анастасия Сердюк, Дарья Волга, Максим Литовченко, Александра Грин, Павел Делонг, Виталий Кудрявцев, Сергей Карасевич, Вадим Медведев (II), Елена Ландер, Ирина Савицкова, Федя Смирнов (II), Анастасия Маринина, Антонина Комиссарова, Иван Чуваткин, Оксана Дорохина, Анна Большова, Анита Бумагина, Сергей Петров (VII), Михаил Гаврилов (II), Елена Лагута, Олеся Лагута, Максим Меркулов, Кирилл Каганович, Максим Ратинер, Евгений Воловенк
Описание фильма:
Семнадцатилетняя Маша Аверина, как тысячи ее сверстников, искренне полагала, что в мире нет ничего страшнее выпускных экзаменов, но теперь ей предстоит оказаться в самом центре столкновения сил добра и зла.
Дело в том, что такая душа, как у Маши, появляется на земле раз в столетие. За 17 лет земной жизни она чудесным образом сохранила ту чистоту, с которой появилась на свет. Маша обладает редчайшей особенностью — её помыслы и поступки чисты от мирской корысти и вообще от какого-либо греха. Это незаметно для окружающих, но прекрасно известно демонам и ангелам, которые начинают борьбу за невинную душу московской школьницы.-Продолжительность: 2 x ~00:40:00
Качество видео: SATRip-Видео: Xvid, 720х400, ~1500 Кбит/с
Аудио: MP3 2.0, 128 Кбит/с

MediaInfo:

Общее
Полное имя : D:\ФИЛЬМЫ\Ангел или демон\Ангел или демон_01.avi
Формат : AVI
Формат/Информация : Audio Video Interleave
Размер файла : 435 Мбайт
Продолжительность : 37 м.
Общий поток : 1637 Кбит/сек
Программа кодирования : VirtualDubMod 1.5.10.2 (build 2540/release)
Библиотека кодирования : VirtualDubMod build 2540/release
Видео
Идентификатор : 0
Формат : MPEG-4 Visual
Профиль формата : Advanced [email protected]
Параметр BVOP формата : 2
Параметр QPel формата : Нет
Параметр GMC формата : Без точки перехода
Параметр матрицы формата : Default (MPEG)
Идентификатор кодека : XVID
Идентификатор кодека/Подсказка : XviD
Продолжительность : 37 м.
Битрейт : 1500 Кбит/сек
Ширина : 720 пикселей
Высота : 400 пикселей
Соотношение сторон : 16:9
Частота кадров : 25,000 кадров/сек
Цветовое пространство : YUV
Субдискретизация насыщенности : 4:2:0
Битовая глубина : 8 бит
Тип развёртки : Прогрессивная
Метод сжатия : С потерями
Бит/(Пиксели*Кадры) : 0.208
Размер потока : 398 Мбайт (92%)
Библиотека кодирования : XviD 65
Аудио
Идентификатор : 1
Формат : MPEG Audio
Версия формата : Version 1
Профиль формата : Layer 3
Режим : Joint stereo
Расширение режима : MS Stereo
Идентификатор кодека : 55
Идентификатор кодека/Подсказка : MP3
Продолжительность : 37 м.
Вид битрейта : Постоянный
Битрейт : 128 Кбит/сек
Каналы : 2 канала
Частота : 48,0 КГц
Метод сжатия : С потерями
Размер потока : 34,0 Мбайт (8%)
Выравнивание : Соединение по промежуткам
Продолжительность промежутка : 40 мс. (1,00 видеокадр)
Время предзагрузки промежутка : 504 мс.
-Скриншоты:
         
Время раздачи: С 10:00 до 22:00 (до 10 скачавших)
Other forum [Profile] [PM]
Similar theme
Forum Topic Author Torrent Replies Last Post
./templates/default/images/folder_dl.gif Фантастика, фэнтези, ужасы, мистика Морган Ричард - Такеси Ковач 2, Сломанные ангелы [Сергей Краснов, (ЛИ), 2016 г., 192 kbps, MP3] Omen
1 | 0

0 | 763

1

2016-09-12 01:00
Omen Latest
Display posts from previous:    
Reply to topic

The time now is: Today 23:24

All times are GMT + 3 Hours



You cannot post new topics in this forum
You cannot reply to topics in this forum
You cannot edit your posts in this forum
You cannot delete your posts in this forum
You cannot vote in polls in this forum
You cannot attach files in this forum
You cannot download files in this forum