Today is a free download without charge Download

Discovery: Операция Арго: как это было / Discovery: ARGO: Inside Story (2013) SATRip

Reply to topic
 
Author
Message

UndegraundMen ®

Longevity: 7 years 7 months

Posts: 25145

Торрент-статистика

Post 06-Apr-2013 00:09

[Quote]

Discovery: Операция Арго: как это было / Discovery: ARGO: Inside Story (2013) SATRip- Русское название: Discovery: Операция Арго: как это было
Оригинальное название: Discovery: ARGO: Inside Story
Режиссер / Телекомпания: Discovery Channel
Год выпуска: 2013
Жанр: Документальный
Описание:
Discovery Channel представляет реальную версию событий, которые легли в основу нашумевшего фильма «Операция «Арго». В программе «Операция Арго: как это было»история о спасении шести американских дипломатов от иранских исламистов предстанет без голливудских прикрас. Политический триллер, которому достался главный «Оскар» 2012 года, породил серьезный политический скандал: власти Ирана собираются подать в суд на его создателей за историческую недостоверность. Недовольство проявили и канадские спецслужбы, чье участие в операции фильм обходит вниманием, приписывая все заслуги ЦРУ. У каждой из сторон своя точка зрения, но правдивой может быть только одна. Какая именно? Узнайте, посмотрев программу «Операция Арго: как это было»
Продолжительность: 00:44:05
Перевод: Одноголосый закадровый, профессиональный
Видеокодек: Xvid
Битрейт видео: ~1231 Кбит/сек
Размер кадра: 704x400
Качество видео: SATRip
Аудиокодек: MP3, 2 канала
Битрейт аудио: 256 Кбит/сек
Скриншоты:
       
       

MediaInfo

Общее
Полное имя : H:\ДОКУМЕНТАЛКИ\Операция «Арго» - Как это было.avi
Формат : AVI
Формат/Информация : Audio Video Interleave
Размер файла : 473 Мбайт
Продолжительность : 44 м.
Общий поток : 1501 Кбит/сек
Программа кодирования : Lavf52.94.0
Примечание : www.freemake.com
Видео
Идентификатор : 0
Формат : MPEG-4 Visual
Профиль формата : [email protected]
Параметр BVOP формата : Нет
Параметр QPel формата : Нет
Параметр GMC формата : Без точки перехода
Параметр матрицы формата : Default (H.263)
Идентификатор кодека : XVID
Идентификатор кодека/Подсказка : XviD
Продолжительность : 44 м.
Битрейт : 1231 Кбит/сек
Ширина : 704 пикселя
Высота : 400 пикселей
Соотношение сторон : 16:9
Частота кадров : 29,970 кадров/сек
Цветовое пространство : YUV
Субдискретизация насыщенности : 4:2:0
Битовая глубина : 8 бит
Тип развёртки : Прогрессивная
Метод сжатия : С потерями
Бит/(Пиксели*Кадры) : 0.146
Размер потока : 388 Мбайт (82%)
Библиотека кодирования : XviD 1.2.1 (UTC 2008-12-04)
Аудио
Идентификатор : 1
Формат : MPEG Audio
Версия формата : Version 1
Профиль формата : Layer 3
Режим : Joint stereo
Идентификатор кодека : 55
Идентификатор кодека/Подсказка : MP3
Продолжительность : 44 м.
Вид битрейта : Постоянный
Битрейт : 256 Кбит/сек
Каналы : 2 канала
Частота : 48,0 КГц
Метод сжатия : С потерями
Размер потока : 80,7 Мбайт (17%)
Выравнивание : Соединение по промежуткам
Продолжительность промежутка : 24 мс. (0,72 видеокадр)
Библиотека кодирования : LAME3.98.4
Время раздачи: с 9:00 до 21:00 по МСК
Other forum [Profile] [PM]
Display posts from previous:    
Reply to topic

The time now is: Today 18:05

All times are GMT + 3 Hours



You cannot post new topics in this forum
You cannot reply to topics in this forum
You cannot edit your posts in this forum
You cannot delete your posts in this forum
You cannot vote in polls in this forum
You cannot attach files in this forum
You cannot download files in this forum