Today is a free download without charge Download

Ты встретишь таинственного незнакомца / You Will Meet a Tall Dark Stranger (Вуди Аллен) [2010 г., мелодрама, комедия, BDRip720p]

Reply to topic
 
Author
Message

Delia ®

Gender:

Longevity: 10 years

Posts: 1821

Торрент-статистика

Post 13-Jul-2011 00:36

[Quote]

Ты встретишь таинственного незнакомцаYou Will Meet a Tall Dark Stranger Год выпуска: 2010
Страна: США, Испания
Жанр: мелодрама, комедия
Продолжительность: 01:38:33
Перевод: Одноголосый закадровый Ю.Сербин
Режиссер: Вуди Аллен
Продюссер: Летти Аронсон, Хаум Рурес, Стефен Тененбаум
Сценарий: Вуди Аллен
Бюджет: $22 000 000
Премьера в мире: 15 мая 2010
В ролях: Антонио Бандерас, Джош Бролин, Энтони Хопкинс, Джемма Джонс, Фрида Пинто, Люси Панч, Наоми Уоттс, Полин Коллинз, Руперт Фрейзер, Келли Харрисон
Описание: Сюжет закручивается вокруг различных членов семьи, их запутанных отношений и их попыток разрешить свои проблемы.
Хелена , достойная лондонская старушка с умеренным пристрастием к скотчу, по совету массажистки обращается к ясновидящей, и та обещает ей романтическую встречу. Тем временем брак дочери Хелены трещит по швам: безработный муж никак не может закончить свою книгу и заглядывается на юную индийскую красавицу из окна напротив , а сама дочь немного влюбляется в своего босса, хозяина арт-галереи . Бывший супруг Хелены , после 40 лет брака ощутивший приступ молодости и бросивший ее, в свою очередь, решает жениться на корыстной тридцатилетней блондинке , работающей в сфере интимных услуг....
Качество: BDRip720p
Формат: MKV
Видео кодек: H.264
Аудио кодек: AC3
Видео: English, 5262 Кбит/сек, 1280*720 (16:9), в 23,976 кадр/сек, AVC ([email protected])
Аудио: Russian, 640 Кбит/сек, 48,0 КГц, 16 бит, 3 канала(ов), AC-3 | Авторский одноголосый (Ю.Сербин)
Аудио:English, 448 Кбит/сек, 48,0 КГц, 16 бит, 3 канала(ов), AC-3 | оригинал
Субтитры:English, French - VobSub

MI:

Общее
Уникальный идентификатор : 234222459892882197169647032954842858767 (0xB0359ADBBF3F40B0ADF5D822FB85450F)
Полное имя : F:\торрент\You Will Meet a Tall Dark Stranger (2010)BDRip720p.mkv
Формат : Matroska
Размер файла : 4,38 Гбайт
Продолжительность : 1 ч. 38 м.
Общий поток : 6361 Кбит/сек
Дата кодирования : UTC 2011-07-12 20:03:53
Программа кодирования : mkvmerge v4.8.0 ('I Got The...') built on May 24 2011 03:12:58
Библиотека кодирования : libebml v1.2.0 + libmatroska v1.1.0
Видео
Идентификатор : 1
Формат : AVC
Формат/Информация : Advanced Video Codec
Профиль формата : [email protected]
Параметр CABAC формата : Да
Параметр ReFrames формата : 8 кадры
Идентификатор кодека : V_MPEG4/ISO/AVC
Продолжительность : 1 ч. 38 м.
Битрейт : 5262 Кбит/сек
Ширина : 1280 пикс.
Высота : 720 пикс.
Соотношение сторон : 16:9
Частота кадров : 23,976 кадр/сек
Цветовое пространство : YUV
Подвыборка цветности : 4:2:0
Битовая глубина : 8 бит
Тип развёртки : Прогрессивная
Бит/(Пиксели*Кадры) : 0.238
Размер потока : 3,54 Гбайт (81%)
Библиотека кодирования : x264 core 115 r2008 4c552d8
Настройки программы : cabac=1 / ref=8 / deblock=1:-3:-3 / analyse=0x3:0x133 / me=umh / subme=9 / psy=1 / psy_rd=1.00:0.15 / mixed_ref=1 / me_range=32 / chroma_me=1 / trellis=2 / 8x8dct=1 / cqm=0 / deadzone=21,11 / fast_pskip=0 / chroma_qp_offset=-3 / threads=6 / sliced_threads=0 / nr=0 / decimate=1 / interlaced=0 / bluray_compat=0 / constrained_intra=0 / bframes=6 / b_pyramid=2 / b_adapt=2 / b_bias=0 / direct=3 / weightb=1 / open_gop=0 / weightp=2 / keyint=250 / keyint_min=24 / scenecut=40 / intra_refresh=0 / rc_lookahead=60 / rc=2pass / mbtree=1 / bitrate=5262 / ratetol=1.0 / qcomp=0.60 / qpmin=0 / qpmax=69 / qpstep=4 / cplxblur=20.0 / qblur=0.5 / vbv_maxrate=50000 / vbv_bufsize=50000 / nal_hrd=none / ip_ratio=1.40 / aq=1:1.00
Язык : English
Аудио #1
Идентификатор : 2
Формат : AC-3
Формат/Информация : Audio Coding 3
Расширение режима : CM (complete main)
Идентификатор кодека : A_AC3
Продолжительность : 1 ч. 38 м.
Вид битрейта : Постоянный
Битрейт : 640 Кбит/сек
Канал(ы) : 3 канала(ов)
Расположение каналов : Front: L R, Side: C
Частота : 48,0 КГц
Битовая глубина : 16 бит
Метод сжатия : С потерями
Размер потока : 451 Мбайт (10%)
Язык : Russian
Аудио #2
Идентификатор : 3
Формат : AC-3
Формат/Информация : Audio Coding 3
Расширение режима : CM (complete main)
Идентификатор кодека : A_AC3
Продолжительность : 1 ч. 38 м.
Вид битрейта : Постоянный
Битрейт : 448 Кбит/сек
Канал(ы) : 3 канала(ов)
Расположение каналов : Front: L R, Side: C
Частота : 48,0 КГц
Битовая глубина : 16 бит
Метод сжатия : С потерями
Размер потока : 316 Мбайт (7%)
Язык : English
Текст #1
Идентификатор : 4
Формат : VobSub
Режим смешивания : zlib
Идентификатор кодека : S_VOBSUB
Идентификатор кодека/Информация : The same subtitle format used on DVDs
Язык : English
Текст #2
Идентификатор : 5
Формат : VobSub
Режим смешивания : zlib
Идентификатор кодека : S_VOBSUB
Идентификатор кодека/Информация : The same subtitle format used on DVDs
Язык : French
Меню
00:00:00.000 : en:00:00:00.000
00:06:02.112 : en:00:06:02.112
00:13:34.522 : en:00:13:34.522
00:18:11.215 : en:00:18:11.215
00:25:27.484 : en:00:25:27.484
00:31:29.554 : en:00:31:29.554
00:35:57.197 : en:00:35:57.197
00:44:24.871 : en:00:44:24.871
00:47:41.942 : en:00:47:41.942
00:54:18.255 : en:00:54:18.255
01:01:18.300 : en:01:01:18.300
01:06:26.774 : en:01:06:26.774
01:11:09.807 : en:01:11:09.807
01:17:35.401 : en:01:17:35.401
01:23:20.329 : en:01:23:20.329
01:28:41.608 : en:01:28:41.608

Скриншоты

                 

_________________
Человек – это канат, натянутый между животным и сверхчеловеком, – канат над пропастью.
В человеке ценно то, что он мост, а не цель. Фридрих Ницше


Last edited by Delia on 2011-08-26 17:51; edited 1 time in total
Other forum [Profile] [PM]
Display posts from previous:    
Reply to topic

The time now is: Today 10:46

All times are GMT + 3 Hours



You cannot post new topics in this forum
You cannot reply to topics in this forum
You cannot edit your posts in this forum
You cannot delete your posts in this forum
You cannot vote in polls in this forum
You cannot attach files in this forum
You cannot download files in this forum