Today is a free download without charge Download

Удар молнии / Struck by Lightning ( Брайан Дэннели ) (2012, Драма, Комедия ) BDRip [720p] [EN]

Reply to topic
 
Author
Message

Витек1 ®

Gender:

Longevity: 8 years 3 months

Posts: 451

Location: Житомир

Торрент-статистика

Post 05-Apr-2013 19:39

[Quote]

Удар молнии / Struck by Lightning - Русское название: Удар молнии
Оригинальное название: Struck by Lightning
Год выпуска: 2012
Жанр: Драма, Комедия
Описание фильма:
События в фильме описываются с точки зрения воспоминаний студента Карсона Филлипса, которого убивает ударом молнии. История о том, как шантажировал своих одноклассников с целью содействия в публикации в литературном журнале, а также о его отношениях с матерью, Шэрил Филлипс, которая пытается восстановить связь с сыном до его отъезда в колледж.
Режиссер: Брайан Дэннели
Актеры: Сара Хайланд, Ребел Уилсон, Кристина Хендрикс, Эллисон Дженни, Дермот Малруни, Крис Колфер, Эшли Рикардс, Элли Грант, Робби Амелл, Мэтт Прокоп
Продолжительность: 01:23:38
Перевод: Отсутствует
Язык: Английский

Видеокодек: MPEG-4 AVC/H.264
Битрейт видео: ~4 098 Kbps
Размер кадра: 1280x720
Качество видео: BDRip
Аудиокодек: DTS : 6 channels
Битрейт аудио: 1 510 Kbps
Сэмпл: Ссылка

Screenlist

 

MediaInfo

Struck by Lightning.720p.mkv
Format : Matroska
Format version : Version 2
File size : 3.28 GiB
Duration : 1h 23mn
Overall bit rate : 5 607 Kbps
Writing application : x264.exe
Writing library : mkv2rls v1.4 (date: 2011 mar 29)
Video
ID : 1
Format : AVC
Format/Info : Advanced Video Codec
Format profile : [url=mailto:[email protected]][email protected][/url]
Format settings, CABAC : Yes
Format settings, ReFrames : 5 frames
Codec ID : V_MPEG4/ISO/AVC
Duration : 1h 23mn
Bit rate : 4 098 Kbps
Width : 1 280 pixels
Height : 720 pixels
Display aspect ratio : 16:9
Frame rate : 23.976 fps
Color space : YUV
Chroma subsampling : 4:2:0
Bit depth : 8 bits
Scan type : Progressive
Bits/(Pixel*Frame) : 0.185
Stream size : 2.33 GiB (71%)
Writing library : x264 core 130 r2273 b3065e6
Encoding settings : cabac=1 / ref=5 / deblock=1:0:0 / analyse=0x3:0x113 / me=umh / subme=8 / psy=1 / psy_rd=1.00:0.00 / mixed_ref=1 / me_range=16 / chroma_me=1 / trellis=1 / 8x8dct=1 / cqm=0 / deadzone=21,11 / fast_pskip=1 / chroma_qp_offset=-2 / threads=12 / lookahead_threads=2 / sliced_threads=0 / nr=0 / decimate=1 / interlaced=0 / bluray_compat=0 / constrained_intra=0 / bframes=3 / b_pyramid=2 / b_adapt=2 / b_bias=0 / direct=3 / weightb=1 / open_gop=0 / weightp=2 / keyint=240 / keyint_min=24 / scenecut=40 / intra_refresh=0 / rc_lookahead=50 / rc=2pass / mbtree=1 / bitrate=4098 / ratetol=1.0 / qcomp=0.60 / qpmin=0 / qpmax=69 / qpstep=4 / cplxblur=20.0 / qblur=0.5 / ip_ratio=1.40 / aq=1:1.00
Language : English
Default : Yes
Forced : No
Audio
ID : 2
Format : DTS
Format/Info : Digital Theater Systems
Codec ID : A_DTS
Duration : 1h 23mn
Bit rate mode : Constant
Bit rate : 1 510 Kbps
Channel(s) : 6 channels
Channel positions : Front: L C R, Side: L R, LFE
Sampling rate : 48.0 KHz
Bit depth : 24 bits
Compression mode : Lossy
Stream size : 903 MiB (27%)
Language : English
Default : Yes
Forced : No
Menu
00:00:00.000 : en:00:00:00.000
00:04:06.496 : en:00:04:06.496
00:11:33.443 : en:00:11:33.443
00:17:05.066 : en:00:17:05.066
00:21:49.183 : en:00:21:49.183
00:26:55.948 : en:00:26:55.948
00:30:49.181 : en:00:30:49.181
00:35:02.350 : en:00:35:02.350
00:40:12.118 : en:00:40:12.118
00:44:20.700 : en:00:44:20.700
00:50:44.083 : en:00:50:44.083
00:56:16.081 : en:00:56:16.081
01:01:35.775 : en:01:01:35.775
01:06:19.684 : en:01:06:19.684
01:10:49.704 : en:01:10:49.704
01:17:58.549 : en:01:17:58.549
Скриншоты:
       

_________________
Скачал сам, дай скачать другому!!!Не забудь сказать -
Other forum [Profile] [PM]
Display posts from previous:    
Reply to topic

The time now is: Today 10:51

All times are GMT + 3 Hours



You cannot post new topics in this forum
You cannot reply to topics in this forum
You cannot edit your posts in this forum
You cannot delete your posts in this forum
You cannot vote in polls in this forum
You cannot attach files in this forum
You cannot download files in this forum