Today is a free download without charge Download

Боги и монстры / Gods and Monsters (Билл Кондон / Bill Condon) [1998, Великобритания, США, драма, биография, WEB-DL 720p] MVO + 2xSub (Rus, Eng) + Original Eng

Reply to topic
 
Author
Message

Omen ®

Longevity: 8 years 5 months

Posts: 181087

Торрент-статистика

Post 05-Apr-2013 02:39

[Quote]

Боги и монстры / Gods and Monsters
Страна: Великобритания, США
Жанр: драма, биография
Год выпуска: 1998
Продолжительность: 01:45:14
Перевод: Профессиональный (многоголосый закадровый)
Cубтитры: русские, английские
Оригинальная аудиодорожка: английский
-
Режиссер: Билл Кондон / Bill Condon
В ролях: Иэн МакКеллен, Брендан Фрейзер, Линн Редгрейв, Лолита Давидович, Дэвид Дьюкс, Кевин Дж. О’Коннор, Марк Кили, Джек Плотник, Розалинд Эйрс, Джек Беттс
-
Описание: Когда бывший морской пехотинец Клэй устроился садовником на виллу пожилого мужчины с неуживчивым характером, то с удивлением узнал, что это Джеймс Уэйл, гениальный режиссер, создатель фильмов о Франкенштейне, вошедших в историю мирового кино.
Одинокий и забытый всеми, кроме верной служанки Ханны, Уэйл занимается живописью и вспоминает дни былой славы. Он открывает перед Клэем волнующий мир искусства и, очарованный его мужественной красотой, уговаривает позировать для портрета.
Неожиданно эти столь разные люди приходят к выводу, что у них много общего, и становятся друзьями, несмотря на все, что их разделяет.


Тип релиза: WEB-DL 720p
Контейнер: MKV
Видео: H264 / NTSC 16:9 / 1280x540 (2,40:1) / 3969 kbps / 23,976 fps / 0.240 bit/pixel / [email protected]
Аудио 1: Russian / AC3 / 48 kHz / 5.1 Ch / 384 kbps / 16 bit / MVO
Аудио 2: English / AC3 / 48 kHz / 5.1 Ch / 384 kbps / 16 bit / Original
Формат субтитров: softsub (SRT)
Навигация по главам: есть

MediaInfo

Общее
Уникальный идентификатор : 244135021631094466736199851439261261236 (0xB7AAB1E28F9761F18C6F11A1F1C49DB4)
Полное имя : W:\WEB-DL 720p\Gods and Monsters.1998.WEB-DL.720p.mkv
Формат : Matroska
Версия формата : Version 4 / Version 2
Размер файла : 3,55 Гбайт
Продолжительность : 1 ч. 45 м.
Общий поток : 4833 Кбит/сек
Дата кодирования : UTC 2013-04-04 18:58:11
Программа кодирования : mkvmerge v6.1.0 ('Old Devil') built on Mar 2 2013 14:32:37
Библиотека кодирования : libebml v1.3.0 + libmatroska v1.4.0
Видео
Идентификатор : 1
Формат : AVC
Формат/Информация : Advanced Video Codec
Профиль формата : [email protected]
Параметр CABAC формата : Нет
Параметр ReFrames формата : 2 кадра
Идентификатор кодека : V_MPEG4/ISO/AVC
Продолжительность : 1 ч. 45 м.
Битрейт : 3969 Кбит/сек
Ширина : 1280 пикселей
Высота : 540 пикселей
Соотношение сторон : 2,40:1
Режим частоты кадров : Постоянный
Частота кадров : 23,976 кадра/сек
Цветовое пространство : YUV
Субдискретизация насыщенности : 4:2:0
Битовая глубина : 8 бит
Тип развёртки : Прогрессивная
Бит/(Пиксели*Кадры) : 0.240
Размер потока : 2,92 Гбайт (82%)
Язык : English
Default : Да
Forced : Нет
Основные цвета : BT.709
Характеристики трансфера : BT.709
Коэффициенты матрицы : BT.709
Аудио #1
Идентификатор : 2
Формат : AC-3
Формат/Информация : Audio Coding 3
Расширение режима : CM (complete main)
Параметр Endianness формата : Big
Идентификатор кодека : A_AC3
Продолжительность : 1 ч. 45 м.
Вид битрейта : Постоянный
Битрейт : 384 Кбит/сек
Каналы : 6 каналов
Расположение каналов : Front: L C R, Side: L R, LFE
Частота : 48,0 КГц
Битовая глубина : 16 бит
Метод сжатия : С потерями
Размер потока : 289 Мбайт (8%)
Заголовок : MVO
Язык : Russian
Default : Да
Forced : Нет
Аудио #2
Идентификатор : 3
Формат : AC-3
Формат/Информация : Audio Coding 3
Расширение режима : CM (complete main)
Параметр Endianness формата : Big
Идентификатор кодека : A_AC3
Продолжительность : 1 ч. 45 м.
Вид битрейта : Постоянный
Битрейт : 384 Кбит/сек
Каналы : 6 каналов
Расположение каналов : Front: L C R, Side: L R, LFE
Частота : 48,0 КГц
Битовая глубина : 16 бит
Метод сжатия : С потерями
Размер потока : 289 Мбайт (8%)
Заголовок : Original
Язык : English
Default : Нет
Forced : Нет
Текст #1
Идентификатор : 4
Формат : UTF-8
Идентификатор кодека : S_TEXT/UTF8
Идентификатор кодека/Информация : UTF-8 Plain Text
Заголовок : RUS / DVD
Язык : Russian
Default : Нет
Forced : Нет
Текст #2
Идентификатор : 5
Формат : UTF-8
Идентификатор кодека : S_TEXT/UTF8
Идентификатор кодека/Информация : UTF-8 Plain Text
Заголовок : Original
Язык : English
Default : Нет
Forced : Нет
Меню
00:00:00.000 : en:Chapter 1
00:09:50.000 : en:Chapter 2
00:20:03.000 : en:Chapter 3
00:32:58.000 : en:Chapter 4
00:42:16.000 : en:Chapter 5
00:52:52.000 : en:Chapter 6
01:05:10.000 : en:Chapter 7
01:17:31.000 : en:Chapter 8
01:31:29.000 : en:Chapter 9
01:41:43.000 : en:Chapter 10

Скриншоты

Other forum [Profile] [PM]
Display posts from previous:    
Reply to topic

The time now is: Today 01:38

All times are GMT + 3 Hours



You cannot post new topics in this forum
You cannot reply to topics in this forum
You cannot edit your posts in this forum
You cannot delete your posts in this forum
You cannot vote in polls in this forum
You cannot attach files in this forum
You cannot download files in this forum