Today is a free download without charge Download

Цель Номер Один / Zero Dark Thirty ( Кэтрин Бигелоу ) (2012, Триллер, Драма, История ) BDRip [720p]

Reply to topic
 
Author
Message

Витек1 ®

Gender:

Longevity: 8 years 3 months

Posts: 451

Location: Житомир

Торрент-статистика

Post 04-Apr-2013 19:20

[Quote]

Цель номер один / Zero Dark Thirty - Русское название: Цель номер один
Оригинальное название: Zero Dark Thirty
Год выпуска: 2012
Производство: США
Жанр: триллер, драма, история
Перевод: Одноголосый закадровый (Живов)
Субтитры: Вшитые отключаемые
Язык субтитров: Русский, Английский
Дата мировой премьеры: 19.12.2012
Дата российской премьеры: 21.02.2013
Дата выхода DVD релиза: 02.04.2013
Режиссер: Кэтрин Бигелоу
Продюсер: Кэтрин Бигелоу, Марк Боал, Меган Эллисон
Актеры: Джессика Честейн, Джоэл Эдгертон, Эдгар Рамирез, Марк Стронг, Кайл Чандлер, Дженнифер Или, Джеймс Гандольфини, Стивен Диллэйн, Хэролд Перрино, Джейсон Кларк
Описание фильма:
История одной из операций спецслужб США по поимке «террориста N1» Усамы Бен Ладена. Продолжительность: 02:36:59
Качество видео: BDRip
Контейнер: MKV
Видеокодек: MPEG-4 AVC/H.264
Видео: ~5745 kbps, 1280х688 / 23.976 fps / 1.86:1 / High Profile 4.1
Аудио №1: DTS 5.1, 48 kHz, 1510 kbps, 24 bits - Оригинал (Английский)
Аудио №2: DTS 5.1, 48 kHz, 1510 kbps, 24 bits - Одноголосый закадровый (Живов)
Релиз группа: HD TRACKER

MediaInfo

D:\Загрузки с торрентов\Zero.Dark.Thirty.2012.720p.mkv
General
  • Unique ID : 181776749338785693495806502808464532712 (0x88C0EDB08122EB16B4C12C1E935E24E8)
  • Complete name : D:\Загрузки с торрентов\Zero.Dark.Thirty.2012.720p.mkv
  • Format : Matroska
  • Format version : Version 2
  • File size : 9.62 GiB
  • Duration : 2h 36mn
  • Overall bit rate : 8 775 Kbps
  • Movie name : Zero.Dark.Thirty.2012.720p.BluRay.DTS.x264-beAst
  • Encoded date : UTC 2013-03-14 17:04:15
  • Writing application : mkvmerge v5.6.0 ('Kenya Kane') built on May 27 2012 16:44:04
  • Writing library : libebml v1.2.3 + libmatroska v1.3.0
    Video #1
  • ID : 1
  • Format : AVC
  • Format/Info : Advanced Video Codec
  • Format profile : [url=mailto:[email protected]][email protected][/url]
  • Format settings, CABAC : Yes
  • Format settings, ReFrames : 9 frames
  • Codec ID : V_MPEG4/ISO/AVC
  • Duration : 2h 36mn
  • Bit rate : 5 745 Kbps
  • Width : 1 280 pixels
  • Height : 688 pixels
  • Display aspect ratio : 1.85:1
  • Frame rate mode : Constant
  • Frame rate : 23.976 fps
  • Color space : YUV
  • Chroma subsampling : 4:2:0
  • Bit depth : 8 bits
  • Scan type : Progressive
  • Bits/(Pixel*Frame) : 0.272
  • Stream size : 6.12 GiB (64%)
  • Writing library : x264 core 129 r2245 bc13772
  • Encoding settings : cabac=1 / ref=9 / deblock=1:-3:-3 / analyse=0x3:0x133 / me=umh / subme=11 / psy=1 / psy_rd=1.10:0.10 / mixed_ref=1 / me_range=32 / chroma_me=1 / trellis=2 / 8x8dct=1 / cqm=0 / deadzone=21,11 / fast_pskip=0 / chroma_qp_offset=-2 / threads=6 / lookahead_threads=1 / sliced_threads=0 / nr=0 / decimate=1 / interlaced=0 / bluray_compat=0 / constrained_intra=0 / bframes=6 / b_pyramid=2 / b_adapt=2 / b_bias=0 / direct=3 / weightb=1 / open_gop=0 / weightp=2 / keyint=250 / keyint_min=23 / scenecut=40 / intra_refresh=0 / rc_lookahead=40 / rc=2pass / mbtree=0 / bitrate=5745 / ratetol=1.0 / qcomp=0.70 / qpmin=0 / qpmax=69 / qpstep=4 / cplxblur=20.0 / qblur=0.5 / vbv_maxrate=40000 / vbv_bufsize=30000 / nal_hrd=none / ip_ratio=1.40 / pb_ratio=1.30 / aq=2:0.90
  • Language : English
  • Default : Yes
  • Forced : No
    Audio #2
  • ID : 2
  • Format : DTS
  • Format/Info : Digital Theater Systems
  • Mode : 16
  • Format settings, Endianness : Big
  • Codec ID : A_DTS
  • Duration : 2h 36mn
  • Bit rate mode : Constant
  • Bit rate : 1 509 Kbps
  • Channel(s) : 6 channels
  • Channel positions : Front: L C R, Side: L R, LFE
  • Sampling rate : 48.0 KHz
  • Bit depth : 24 bits
  • Compression mode : Lossy
  • Stream size : 1.65 GiB (17%)
  • Title : DTS @ 1509 kbps
  • Default : No
  • Forced : No
    Audio #3
  • ID : 3
  • Format : DTS
  • Format/Info : Digital Theater Systems
  • Mode : 16
  • Format settings, Endianness : Big
  • Codec ID : A_DTS
  • Duration : 2h 36mn
  • Bit rate mode : Constant
  • Bit rate : 1 509 Kbps
  • Channel(s) : 6 channels
  • Channel positions : Front: L C R, Side: L R, LFE
  • Sampling rate : 48.0 KHz
  • Bit depth : 24 bits
  • Compression mode : Lossy
  • Stream size : 1.65 GiB (17%)
  • Title : Живов
  • Language : Russian
  • Default : Yes
  • Forced : No
    Text #4
  • ID : 4
  • Format : PGS
  • Muxing mode : zlib
  • Codec ID : S_HDMV/PGS
  • Codec ID/Info : The same subtitle format used on BDs/HD-DVDs
  • Title : Eng/SUP
  • Language : English
  • Default : No
  • Forced : No
    Text #5
  • ID : 5
  • Format : UTF-8
  • Codec ID : S_TEXT/UTF8
  • Codec ID/Info : UTF-8 Plain Text
  • Language : Russian
  • Default : No
  • Forced : No

Дополнительная информация

За перевод Ю.Живова большое спасибо пользователям форумов: hdtracker: Xerman13, Chistobaev, ZeRoNe, olegsoleg, KpucTo161, sawyer4, Guyver, feldeger и e180: foxlight, Диммон, safreks, Slimka, Эдуард, пуля. Отдельное спасибо Xerman13 и foxlight!
Работа с авторской дорожкой по наложению чистого голоса Ю.Живова KpucTo161, за что ему большое спасибо
Скриншоты:        

_________________
Скачал сам, дай скачать другому!!!Не забудь сказать -
Other forum [Profile] [PM]
Display posts from previous:    
Reply to topic

The time now is: Today 09:39

All times are GMT + 3 Hours



You cannot post new topics in this forum
You cannot reply to topics in this forum
You cannot edit your posts in this forum
You cannot delete your posts in this forum
You cannot vote in polls in this forum
You cannot attach files in this forum
You cannot download files in this forum