Today is a free download without charge Download

Цель номер один / Zero Dark Thirty ( Кэтрин Бигелоу ) (2012, Триллер, драма, история ) BDRip [1080p]

Reply to topic
 
Author
Message

Витек1 ®

Gender:

Longevity: 8 years 3 months

Posts: 451

Location: Житомир

Торрент-статистика

Post 04-Apr-2013 19:20

[Quote]

Цель номер один / Zero Dark Thirty
«Десять лет женщина провела в поисках самого опасного в мире человека»
- Русское название: Цель номер один
Оригинальное название: Zero Dark Thirty
Год выпуска: 2012
Производство: Annapurna Pictures / Columbia Pictures / First Light Production [США]
Жанр: Триллер, драма, история
Перевод: Авторский одноголосый, закадровый
Озвучка / Автор перевода: Ю. Живов
Субтитры: Вшитые отключаемые
Язык субтитров: Русский, английский (форсированные, полные, SDH), финский, голландский, французский, греческий, польский, испанский
Режиссер: Кэтрин Бигелоу
Актеры: Джессика Честейн, Джейсон Кларк, Джоэл Эдгертон, Дженнифер Или, Марк Стронг, Кайл Чандлер, Эдгар Рамирез, Джеймс Гандольфини, Крис Прэтт, Каллэн Мулвей
Описание фильма:
История одной из операций спецслужб США по поимке «террориста N1» Усамы Бен Ладена.
Дата мировой премьеры: 19 декабря 2012
Дата российской премьеры: 21 февраля 2013, «Централ Партнершип»
Дата выхода DVD релиза: 2 апреля 2013, «Флагман-Трейд»
Дата выхода Blu-Ray релиза: 2 апреля 2013, «Флагман-Трейд»
Рейтинг R - Детям до 17 лет обязательно присутствие родителей
Возраст 16+ - Зрителям, достигшим 16 лет Продолжительность: 02:36:59
Качество видео: BDRip [HDMaNiAcS]
Видео: MPEG4_AVC/H.264, 1920x1036, ~15000 kbps, 23.976 fps
Аудио 1: DTS 5.1, 1510 kbps [Русский - одноголосый закадровый «Ю. Живов»*]
Аудио 2: DTS 5.1, 1510 kbps [Английский - оригинал]

MediaInfo...

Полное имя : D:\Цель.номер.один-Zero.Dark.Thirty.(2012).BDRip.[1080p].mkv
Формат : Matroska
Версия формата : Version 2
Размер файла : 19,8 Гбайт
Продолжительность : 2 ч. 36 м.
Общий поток : 18,0 Мбит/сек
Название фильма : »»NNM-Club««
Дата кодирования : UTC 2013-03-15 12:40:45
Программа кодирования : mkvmerge v5.7.0 ('The Whirlwind') built on Aug 7 2012 14:11:40
Библиотека кодирования : libebml v1.2.3 + libmatroska v1.3.0
Видео
Идентификатор : 1
Формат : AVC
Формат/Информация : Advanced Video Codec
Профиль формата : [url=mailto:[email protected]][email protected][/url]
Параметр CABAC формата : Да
Параметр ReFrames формата : 4 кадра
Идентификатор кодека : V_MPEG4/ISO/AVC
Битрейт : 15,0 Мбит/сек
Ширина : 1920 пикселей
Высота : 1036 пикселей
Соотношение сторон : 1,85:1
Режим частоты кадров : Переменный
Частота кадров в оригинале : 23,976 кадра/сек
Цветовое пространство : YUV
Субдискретизация насыщенности : 4:2:0
Битовая глубина : 8 бит
Тип развёртки : Прогрессивная
Бит/(Пиксели*Кадры) : 0.315
Заголовок : Zero.Dark.Thirty.2012.1080p.BluRay.DTS.x264-HDMaNiAcS
Библиотека кодирования : x264 core 129 r2245 bc13772
Настройки программы : cabac=1 / ref=4 / deblock=1:-3:-3 / analyse=0x3:0x133 / me=tesa / subme=11 / psy=1 / psy_rd=0.90:0.05 / mixed_ref=1 / me_range=24 / chroma_me=1 / trellis=2 / 8x8dct=1 / cqm=0 / deadzone=21,11 / fast_pskip=1 / chroma_qp_offset=-3 / threads=12 / lookahead_threads=2 / sliced_threads=0 / nr=0 / decimate=1 / interlaced=0 / bluray_compat=0 / constrained_intra=0 / bframes=8 / b_pyramid=2 / b_adapt=2 / b_bias=0 / direct=3 / weightb=1 / open_gop=0 / weightp=2 / keyint=240 / keyint_min=23 / scenecut=40 / intra_refresh=0 / rc=2pass / mbtree=0 / bitrate=15000 / ratetol=1.0 / qcomp=0.70 / qpmin=10 / qpmax=69 / qpstep=4 / cplxblur=20.0 / qblur=0.5 / ip_ratio=1.40 / pb_ratio=1.30 / aq=2:0.60
Язык : English
Default : Да
Forced : Нет
Аудио #1
Идентификатор : 2
Формат : DTS
Формат/Информация : Digital Theater Systems
Идентификатор кодека : A_DTS
Продолжительность : 2 ч. 36 м.
Вид битрейта : Постоянный
Битрейт : 1510 Кбит/сек
Каналы : 6 каналов
Расположение каналов : Front: L C R, Side: L R, LFE
Частота : 48,0 КГц
Битовая глубина : 24 бит
Метод сжатия : С потерями
Размер потока : 1,66 Гбайт (8%)
Заголовок : Живов
Язык : Russian
Default : Да
Forced : Нет
Аудио #2
Идентификатор : 3
Формат : DTS
Формат/Информация : Digital Theater Systems
Идентификатор кодека : A_DTS
Продолжительность : 2 ч. 36 м.
Вид битрейта : Постоянный
Битрейт : 1510 Кбит/сек
Каналы : 6 каналов
Расположение каналов : Front: L C R, Side: L R, LFE
Частота : 48,0 КГц
Битовая глубина : 24 бит
Метод сжатия : С потерями
Размер потока : 1,66 Гбайт (8%)
Язык : English
Default : Нет
Forced : Нет
Текст #1
Идентификатор : 4
Формат : UTF-8
Идентификатор кодека : S_TEXT/UTF8
Идентификатор кодека/Информация : UTF-8 Plain Text
Язык : Russian
Default : Нет
Forced : Нет
Текст #2
Идентификатор : 5
Формат : UTF-8
Идентификатор кодека : S_TEXT/UTF8
Идентификатор кодека/Информация : UTF-8 Plain Text
Заголовок : forced
Язык : English
Default : Нет
Forced : Нет
Текст #3
Идентификатор : 6
Формат : UTF-8
Идентификатор кодека : S_TEXT/UTF8
Идентификатор кодека/Информация : UTF-8 Plain Text
Язык : English
Default : Нет
Forced : Нет
Текст #4
Идентификатор : 7
Формат : UTF-8
Идентификатор кодека : S_TEXT/UTF8
Идентификатор кодека/Информация : UTF-8 Plain Text
Заголовок : SDH
Язык : English
Default : Нет
Forced : Нет
Текст #5
Идентификатор : 8
Формат : UTF-8
Идентификатор кодека : S_TEXT/UTF8
Идентификатор кодека/Информация : UTF-8 Plain Text
Язык : Dutch
Default : Нет
Forced : Нет
Текст #6
Идентификатор : 9
Формат : UTF-8
Идентификатор кодека : S_TEXT/UTF8
Идентификатор кодека/Информация : UTF-8 Plain Text
Язык : Finnish
Default : Нет
Forced : Нет
Текст #7
Идентификатор : 10
Формат : UTF-8
Идентификатор кодека : S_TEXT/UTF8
Идентификатор кодека/Информация : UTF-8 Plain Text
Язык : French
Default : Нет
Forced : Нет
Текст #8
Идентификатор : 11
Формат : UTF-8
Идентификатор кодека : S_TEXT/UTF8
Идентификатор кодека/Информация : UTF-8 Plain Text
Язык : Greek
Default : Нет
Forced : Нет
Текст #9
Идентификатор : 12
Формат : UTF-8
Идентификатор кодека : S_TEXT/UTF8
Идентификатор кодека/Информация : UTF-8 Plain Text
Язык : Polish
Default : Нет
Forced : Нет
Текст #10
Идентификатор : 13
Формат : UTF-8
Идентификатор кодека : S_TEXT/UTF8
Идентификатор кодека/Информация : UTF-8 Plain Text
Язык : Spanish
Default : Нет
Forced : Нет
Меню
00:00:00.000 : en:00:00:00.000
00:09:50.298 : en:00:09:50.298
00:15:42.650 : en:00:15:42.650
00:23:05.884 : en:00:23:05.884
00:31:23.048 : en:00:31:23.048
00:41:35.201 : en:00:41:35.201
00:50:30.694 : en:00:50:30.694
01:04:11.806 : en:01:04:11.806
01:13:37.705 : en:01:13:37.705
01:20:27.656 : en:01:20:27.656
01:34:05.849 : en:01:34:05.849
01:46:46.191 : en:01:46:46.191
01:53:17.332 : en:01:53:17.332
02:02:37.725 : en:02:02:37.725
02:14:08.874 : en:02:14:08.874
02:22:34.588 : en:02:22:34.588
Скриншоты:
       
       

_________________
Скачал сам, дай скачать другому!!!Не забудь сказать -
Other forum [Profile] [PM]

Dracula

Longevity: 7 years 5 months

Posts: 11218

Торрент-статистика

Post 02-Jan-2014 15:52 (after 8 months 27 days)

Топик был перенесен из форума Новинки (DVD, HD Video) в форум Зарубежное кино (HD Video)


kogesan
 
Display posts from previous:    
Reply to topic

The time now is: Today 23:23

All times are GMT + 3 Hours



You cannot post new topics in this forum
You cannot reply to topics in this forum
You cannot edit your posts in this forum
You cannot delete your posts in this forum
You cannot vote in polls in this forum
You cannot attach files in this forum
You cannot download files in this forum