Today is a free download without charge Download

Необходимые вещи / Нужные вещи / Needful Things (Фрэйзер С. Хестон / Fraser C. Heston) [1993, США, Мистический триллер, BDRip 1080p] AVO(Гаврилов) + DVO(Twister) + DVO(Inis) + Sub Rus,Eng + Original Eng

Reply to topic
 
Author
Message

Omen ®

Longevity: 8 years 5 months

Posts: 181087

Торрент-статистика

Post 04-Apr-2013 18:28

[Quote]

Необходимые вещи / Needful Things
Страна: США
Студия: Castle Rock Entertainment & New Line Cinema
Жанр: Мистический триллер
Год выпуска: 1993
Продолжительность: 02:00:56
Перевод: Авторский (одноголосый закадровый) Андрей Гаврилов
Перевод 2: Профессиональный (двухголосый закадровый) (Twister)
Перевод 3: Профессиональный (двухголосый закадровый) (Inis)
Cубтитры: Русские, английские
Оригинальная аудиодорожка: английский
Режиссер: Фрэйзер С. Хестон / Fraser C. Heston
В ролях: Макс фон Зюдов /Leland Gaunt/, Эд Харрис /Sheriff Alan Pangborn/, Бонни Беделиа /Polly Chalmers/, Аманда Пламмер /Nettie Cobb/, Дж. Т. Уолш /Danforth Keeton III/, Рэй МакКиннон /Deputy Norris Ridgewick/, Вэлри Бромфилд /Wilma Jerzyck/, Шейн Майер /Brian Rusk, Уильям Морган Шеппард /Father Meehan, Дон С. Дэвис/Reverend Rose, Кэмпбелл Лэйн /Frank Jewett, Фрэнк Ч. Тёрнер /Pete Jerzyck, Джиллиан Барбер /Myrtle Keeton, Дебора Вэйкхэм /Myra, Локлин Манро /John LaPointe, Билл Крофт /Andy Clutterbuck, Ди Джей Джексон /Eddie Warburton, Sarah Sawatsky /14 Year Old Girl, Роберт Истон /Lester Pratt, Майк Шуте /Young Hugh, Лиза Блаунт /Cora Rusk, в титрах не указана
Описание: В тихом городке Касл-Рок открывается необычный магазин "Необходимые вещи", где можно за полцены купить все, что душе угодно. За вторую половину цены хозяин (фон Зюдов) требует, чтобы покупатель устроил какую-нибудь пакость ближнему своему. В результате городок превращается в преисподнюю. Убийства, драки, взрывы, сведение счетов - сам дъявол манипулирует здешними обывателями. Если бы не шериф (Хэррис), все население Касл-Рока, похоже, переселилось бы в ад. Но шериф оказался человеком, которому от дъявола ничего не нужно. Он ничего не захотел купить в этом проклятом магазине. Великолепные спецэффекты. Остается только добавить, что фильм поставлен по роману Стивена Кинга. (Иванов М.)
--------------------------------------------------
Оператор: Тони Уэстмэн /Tony Westman/
Сценарист: У. Д. Рихтер /W. D. Richter/
Продюсер: Джек Камминз /Jack Cummins/
Монтажер: Роб Кобрин /Rob Kobrin/
Переводчик: Андрей Гаврилов
Композитор: Патрик Дойл /Patrick Doyle/
Художник: Даглас Хиггинс /Douglas Higgins/
Исполнительный продюсер: Питер Йэйтс /Peter Yates/
По произведению: Стивен Кинг /Stephen King/
--------------------------------------------------
КИНОПОИСК. RU
РЕЙТИНГ - 6.718 оценки: 1514
6,1/10
--------------------------------------------------
Доп. информация: BDRip найден в сети. Перевод Андрея Гаврилова с этой раздачи - DVDRip
Двухголосый закадровый (Twister) - отсюда - DVDRip
Двухголосый закадровый (Inis) - отсюда - DVDRip
--------------------------------------------------
СЭМПЛ
--------------------------------------------------
Тип релиза: BDRip 1080p
Контейнер: MKV
Видео: 1920x1080; 24,000 fps; ~ 9575 Kbps; 0.192 Bits/Pixel
Аудио 1: Russian - 48 kHz, AC3, 2/0 (L,R) ch, ~ 192 kbps - Андрей Гаврилов
Аудио 2: Russian - 48 kHz, AC3, 2/0 (L,R) ch, ~ 192 kbps - DVO(Twister)
Аудио 3: Russian - 48 kHz, AC3, 2/0 (L,R) ch, ~ 192 kbps - DVO(Inis)
Аудио 4: English - 48 kHz, DTS, 2/0 (L,R) ch, ~ 755 kbps, - Original
Формат субтитров: softsub (SRT)

MediaInfo

General
Complete name : F:\EXCLUZIVE=19\НЕОБХОДИМЫЕ ВЕЩИ [Needful Things](1993)\Needful Things [Fraser C. Heston](1993)\Needful.Things.1993.1080p.BluRay.x264-LiViDiTY [PublicHD].mkv
Format : Matroska
File size : 9.22 GiB
Duration : 2h 1mn
Overall bit rate : 10.9 Mbps
Movie name : Needful Things 1080p
Encoded date : UTC 2013-03-31 23:38:07
Writing application : mkvmerge v3.3.0 ('Language') built on Mar 24 2010 14:59:24
Writing library : libebml v0.8.0 + libmatroska v0.9.0
Video
ID : 1
Format : AVC
Format/Info : Advanced Video Codec
Format profile : [email protected]
Format settings, CABAC : Yes
Format settings, ReFrames : 4 frames
Muxing mode : Container [email protected]
Codec ID : V_MPEG4/ISO/AVC
Duration : 2h 1mn
Bit rate : 9 575 Kbps
Width : 1 920 pixels
Height : 1 080 pixels
Display aspect ratio : 16:9
Frame rate : 24.000 fps
Color space : YUV
Chroma subsampling : 4:2:0
Bit depth : 8 bits
Scan type : Progressive
Bits/(Pixel*Frame) : 0.192
Stream size : 7.91 GiB (86%)
Title : Needful.Things @ 1993
Writing library : x264 core 129 r2230 1cffe9f
Encoding settings : cabac=1 / ref=4 / deblock=1:0:0 / analyse=0x3:0x113 / me=umh / subme=7 / psy=1 / psy_rd=1.00:0.00 / mixed_ref=1 / me_range=16 / chroma_me=0 / trellis=1 / 8x8dct=1 / cqm=0 / deadzone=21,11 / fast_pskip=0 / chroma_qp_offset=-2 / threads=6 / lookahead_threads=1 / sliced_threads=0 / nr=0 / decimate=1 / interlaced=0 / bluray_compat=0 / constrained_intra=0 / bframes=3 / b_pyramid=2 / b_adapt=1 / b_bias=0 / direct=1 / weightb=1 / open_gop=0 / weightp=2 / keyint=250 / keyint_min=24 / scenecut=40 / intra_refresh=0 / rc_lookahead=40 / rc=2pass / mbtree=1 / bitrate=9575 / ratetol=1.0 / qcomp=0.60 / qpmin=0 / qpmax=69 / qpstep=4 / cplxblur=20.0 / qblur=0.5 / ip_ratio=1.40 / aq=1:1.00
Language : English
Audio #1
ID : 2
Format : AC-3
Format/Info : Audio Coding 3
Mode extension : CM (complete main)
Codec ID : A_AC3
Duration : 2h 1mn
Bit rate mode : Constant
Bit rate : 192 Kbps
Channel(s) : 2 channels
Channel positions : Front: L R
Sampling rate : 48.0 KHz
Stream size : 166 MiB (2%)
Title : AVO Гаврилов @ AC3 2ch. 192 kbps
Language : Russian
Audio #2
ID : 3
Format : AC-3
Format/Info : Audio Coding 3
Mode extension : CM (complete main)
Codec ID : A_AC3
Duration : 2h 1mn
Bit rate mode : Constant
Bit rate : 192 Kbps
Channel(s) : 2 channels
Channel positions : Front: L R
Sampling rate : 48.0 KHz
Stream size : 166 MiB (2%)
Title : DVO TWISTER @ AC3 2ch. 192 kbps
Language : Russian
Audio #3
ID : 4
Format : AC-3
Format/Info : Audio Coding 3
Mode extension : CM (complete main)
Codec ID : A_AC3
Duration : 2h 1mn
Bit rate mode : Constant
Bit rate : 192 Kbps
Channel(s) : 2 channels
Channel positions : Front: L R
Sampling rate : 48.0 KHz
Stream size : 166 MiB (2%)
Title : DVO-INIS @ AC3 2ch. 192 kbps
Language : Russian
Audio #4
ID : 5
Format : DTS
Format/Info : Digital Theater Systems
Codec ID : A_DTS
Duration : 2h 1mn
Bit rate mode : Constant
Bit rate : 755 Kbps
Channel(s) : 2 channels
Channel positions : Front: L R
Sampling rate : 48.0 KHz
Bit depth : 24 bits
Video delay : 11ms
Stream size : 653 MiB (7%)
Title : Original @ DTS 2ch. 755 kbps
Language : English
Text #1
ID : 6
Format : UTF-8
Codec ID : S_TEXT/UTF8
Codec ID/Info : UTF-8 Plain Text
Title : *srt
Language : Russian
Text #2
ID : 7
Format : UTF-8
Codec ID : S_TEXT/UTF8
Codec ID/Info : UTF-8 Plain Text
Title : *srt
Language : English
Menu
00:00:00.000 : en:00:00:00.000
00:11:07.875 : en:00:11:07.875
00:22:41.125 : en:00:22:41.125
00:32:00.917 : en:00:32:00.917
00:44:29.000 : en:00:44:29.000
00:55:06.042 : en:00:55:06.042
01:06:30.958 : en:01:06:30.958
01:16:44.208 : en:01:16:44.208
01:25:42.125 : en:01:25:42.125
01:35:35.500 : en:01:35:35.500
01:46:08.667 : en:01:46:08.667
01:57:00.042 : en:01:57:00.042

Скриншоты

, ,
, ,
, ,
, ,
, ,
Мои раздачи фильмов в Авторском переводе
Other forum [Profile] [PM]
Similar theme
Forum Topic Author Torrent Replies Last Post
./templates/default/images/folder_dl.gif Техническая и научно-популярная литература Сид Катцен | PIC-микроконтроллеры. Все, что вам необходимо знать [2008] [DJVU] UndegraundMen
1 | 0

0 | 922

4

2013-07-23 17:33
UndegraundMen Latest
Display posts from previous:    
Reply to topic

The time now is: Today 09:47

All times are GMT + 3 Hours



You cannot post new topics in this forum
You cannot reply to topics in this forum
You cannot edit your posts in this forum
You cannot delete your posts in this forum
You cannot vote in polls in this forum
You cannot attach files in this forum
You cannot download files in this forum