Today is a free download without charge Download

ЧайФ - Концерт в г. Воронеж, ДК 50-ти летия Октября (30.03.2013) [2013, Rock, HDCam 720p]

Reply to topic
 
Author
Message

Omen ®

Longevity: 8 years 4 months

Posts: 181087

Торрент-статистика

Post 04-Apr-2013 18:28

[Quote]

ЧайФ - Концерт в г. Воронеж, ДК 50-ти летия Октября (30.03.2013)
Жанр: Rock
Продолжительность: 02ч. 21мин. 06с.
Год выпуска: 2013
Трэклист:
01. Мама, она больше не может
02. Трамвай
03. Кто-то хитрый
04. Зажги огонь в моих глазах
05. Внеплановый концерт
06. Не спеши
07. А то
08. Не говори никому
09. Не дай мне повод
10. Псы с городских окраин
11. У зимнего моря
12. Время не ждёт
13. Я рисую
14. Не доводи до предела
15. Ой-йо
16. Аргентина-Ямайка 5:0
17. Шаляй-Валяй
18. Не со мной
19. Рок-н-Ролл этой ночи
20. 17 лет
21. Оранжевое настроение
22. С войны (на бис)
23. Печаль [Кино] (на бис)
24. Пригородный блюз [Зоопарк] (на бис)
25. Поплачь о нём (на бис)

Описание: Концерт проходил в рамках тура "20 лет альбому Дети Гор", в городе Воронеж, в Доме Культуры "50-ти летия Октября" 30 марта 2013.
Доп. информация: Съёмка производилась со штатива из зала на зеркалку Canon 650D и стекло 18-175 mm.
На запись попал весь концерт, кроме одной песни - "В её глазах" (пришлось менять батарею в аппарате).
Качество, как картинки, так и звука вышло весьма неплохим для съёмок "с воздуха".
Оригинал записи склеен и пережат Adobe Premiere Elements 11.
Качество: HDCam
Контейнер: MPG
Видео кодек: MPEG2
Аудио кодек: MP2
Видео: MPEG2 Video 1280x720 29.97fps 18500kbps [Video - MPEG2, Main Profile, High1440 Level, 1280x720, 29.970 fps, 18500.0 kbit/s (0000,e0,00)]
Аудио: MPEG Audio 48000Hz stereo 384kbps [Audio - MPEG1 - Layer 2, 48.0 kHz, 2 chn, 384.0 kbit/s (0000,c0,00)]

Отчёт MediaInfo / BDInfo

GeneralComplete name : F:\!Раздачи трекеров\ЧайФ г.Воронеж, ДК 50-ти летия Октября (30.03.2013)\ЧайФ г.Воронеж, ДК 50-ти летия Октября (30.03.2013).mpgFormat : MPEG-PSFile size : 14.7 GiBDuration : 2h 21mnOverall bit rate mode : VariableOverall bit rate : 14.9 Mbps
VideoID : 224 (0xE0)Format : MPEG VideoCommercial name : HDV 720pFormat version : Version 2Format profile : [email protected] 1440Format settings, BVOP : YesFormat settings, Matrix : DefaultFormat settings, GOP : M=3, N=15Duration : 2h 21mnBit rate mode : VariableBit rate : 14.2 MbpsMaximum bit rate : 18.5 MbpsWidth : 1 280 pixelsHeight : 720 pixelsDisplay aspect ratio : 16:9Frame rate : 29.970 fpsStandard : NTSCColor space : YUVChroma subsampling : 4:2:0Bit depth : 8 bitsScan type : ProgressiveCompression mode : LossyBits/(Pixel*Frame) : 0.514Time code of first frame : 00:00:00;00Time code source : Group of pictures headerStream size : 14.0 GiB (95%)Color primaries : BT.709Transfer characteristics : BT.709Matrix coefficients : BT.709
AudioID : 192 (0xC0)Format : MPEG AudioFormat version : Version 1Format profile : Layer 2Duration : 2h 21mnBit rate mode : ConstantBit rate : 384 KbpsChannel(s) : 2 channelsSampling rate : 48.0 KHzCompression mode : LossyDelay relative to video : -66msStream size : 388 MiB (3%)

Скриншоты




Other forum [Profile] [PM]
Display posts from previous:    
Reply to topic

The time now is: Today 21:36

All times are GMT + 3 Hours



You cannot post new topics in this forum
You cannot reply to topics in this forum
You cannot edit your posts in this forum
You cannot delete your posts in this forum
You cannot vote in polls in this forum
You cannot attach files in this forum
You cannot download files in this forum