Сегодня идет свободное скачивание без начисления Download

Город волков / Wolf Town (Джон Ребел / John Rebel) [2010 г.] (Ужасы, триллер) [DVDRip] (DVO) [internal release]

Ответить на тему
 
Автор
Сообщение

}{[email protected]БЬ)Ч ®

Стаж: 7 лет 8 месяцев

Сообщений: 58

Торрент-статистика

Пост 12-Июл-2011 09:52

[Цитировать]

--Город волков / Wolf Town-- Год выпуска: 2010
Производство: США
Жанр: Ужасы, триллер
Продолжительность: 1:24:37
Перевод: Любительский (двухголосый закадровый)--Режиссер: Джон Ребел / John Rebel--В ролях: Levi Fiehler, Алисия Циглер, Джош Келли, Макс Адлер.--Описание: Кайл, застенчивый студент колледжа с тремя друзьями оказываются пойманными в ловушку стаей свирепых волков, в старом заброшенном городе. Теперь он должен преодолеть свои страхи и противостоять волкам, что бы спасти себя и своих друзей...--
--Источник/Качество: DVDRip
Формат: AVI
Видео кодек: XviD
Аудио кодек: AC3
Видео: 720x400 (1.80:1), 25 fps, XviD build 50 ~2015 kbps avg, 0.28 bit/pixel
Аудио: 48 kHz, AC3 Dolby Digital, 3/2 (L,C,R,l,r) + LFE ch, ~448 kbps

Media Info

Общее
Полное имя : D:\jolly roger\Gorod volkov.2010.DVDRip.Xvid.JRG.avi
Формат : AVI
Формат/Информация : Audio Video Interleave
Размер файла : 1,46 Гбайт
Продолжительность : 1 ч. 24 м.
Общий поток : 2463 Кбит/сек
Программа кодирования : VirtualDubMod 1.5.10.3 || (build 2550/release)
Библиотека кодирования : VirtualDubMod build 2550/release
Видео
Идентификатор : 0
Формат : MPEG-4 Visual
Профиль формата : Advanced [email protected]
Параметр BVOP формата : 2
Параметр QPel формата : Нет
Параметр GMC формата : Без точки перехода
Параметр матрицы формата : Default (MPEG)
Идентификатор кодека : XVID
Идентификатор кодека/Подсказка : XviD
Продолжительность : 1 ч. 24 м.
Битрейт : 2015 Кбит/сек
Ширина : 720 пикс.
Высота : 400 пикс.
Соотношение сторон : 16:9
Частота кадров : 25,000 кадр/сек
Цветовое пространство : YUV
Подвыборка цветности : 4:2:0
Битовая глубина : 8 бит
Тип развёртки : Прогрессивная
Метод сжатия : С потерями
Бит/(Пиксели*Кадры) : 0.280
Размер потока : 1,19 Гбайт (82%)
Библиотека кодирования : XviD 1.2.1 (UTC 2008-12-04)
Аудио
Идентификатор : 1
Формат : AC-3
Формат/Информация : Audio Coding 3
Расширение режима : CM (complete main)
Идентификатор кодека : 2000
Продолжительность : 1 ч. 22 м.
Вид битрейта : Постоянный
Битрейт : 448 Кбит/сек
Каналы : 6 каналов
Расположение каналов : Front: L C R, Side: L R, LFE
Частота : 48,0 КГц
Битовая глубина : 16 бит
Метод сжатия : С потерями
Размер потока : 265 Мбайт (18%)
Выравнивание : Разделение по промежуткам
Продолжительность промежутка : 41 мс. (1,02 видеокадр)
Время предзагрузки промежутка : 500 ms

Скрины

     


Последний раз редактировалось: }{[email protected]БЬ)Ч (2011-07-12 09:53), всего редактировалось 2 раз(а)
Вне форума [Профиль] [ЛС]
Похожие темы
Форум Тема Автор Торрент Отв. Посл. сообщение
./templates/default/images/folder_dl.gif Новинки (HD|DVD|BD|WEB|TV|SAT|PDTV|-Rip) Хроники хищных городов / Mortal Engines (Кристиан Риверс) [2018 г., Фантастика, фэнтези, боевик, триллер, приключения, WEB-DLRip-AVC] | DUB [iTunes] Theseus
1 | 0

0 | 318

8

2019-01-31 17:19
Theseus Последнее
Показать сообщения:    
Ответить на тему

Текущее время: Сегодня 05:37

Часовой пояс: GMT + 3



Вы не можете начинать темы
Вы не можете отвечать на сообщения
Вы не можете редактировать свои сообщения
Вы не можете удалять свои сообщения
Вы не можете голосовать в опросах
Вы не можете прикреплять файлы к сообщениям
Вы не можете скачивать файлы