Today is a free download without charge Download

Женский доктор / Сезон: 2, Серии: 1-23 из 60 (Антон Гойда) [2013, мелодрама, WEBRip]

Reply to topic
 
Author
Message

Omen ®

Longevity: 9 years

Posts: 181086

Торрент-статистика

Post 04-Apr-2013 06:12

[Quote]

Женский доктор 2
Год выпуска: 2013
Производство: Украина, ISTIL STUDIOS & TANARM PICTURES, FILM.UA, PRIMA FILM
Жанр: Мелодрама
Продолжительность: 23 x ~ 00:45:00
Режиссёр: Антон Гойда
В ролях: Михаил Химичев, Сергей Калантай, Алёна Яковлева, Андрей Финягин, Олеся Власова, Виталина Библив, Олег Иваница, Сергей Булин, Андрей Павленко, Анатолий Котенев, Яна Глущенко, Ольга Радчук, Светлана Кирпичова, Денис Толяренко, Лика Ливицкая, Василий Киба, Иван Марченко, Алла Бовт, Натали Воронюк и другие.
Описание: «Женский доктор-2» расскажет 60 историй из жизни провинциального роддома и центра репродуктологии, каждая из которых призвана дарить надежду. Новые трогательные истории сериала, столь полюбившегося нашим зрителям. В новых сериях нас ждем знакомство с новым доктором.
РЕКЛАМЫ НЕТ!
Rip by Getty
Сэмпл: http://multi-up.com/848287

Список серии

01. Мужчина и женщина
02. Алиби
03. Амнезия
04. В колее
05. Невеста для настоящего мужчины
06. Мать - героиня
07. Счастливый многоженец
08. Любовь по показанием
09. Отцом буду я
10. Рита - жук
11. Водитель для Гали
12. Раба любви
13. Прекрасная абигаль
14. Выбор
15. Подарок судьбы
16. День зарплаты
17. Королева Лир
18. Единожды солгав
19. Мой ребенок - инопланетянин
20. Возвращение
21. Только мой
22. Реанимация чувств
23. Отец и сын
Качество: WEBRip
Формат: AVI
Видео кодек: XviD
Аудио кодек: AC3
Видео: 720x400, 25 fps, XviD,~1619 kbps avg, ~0.225 bit/pixel
Аудио: AC3, 48 kHz, 2/0 (L, R), 192 kbps

MI

General
Complete name : F:\Zhenskiy.doktor2.2013.WEBDLRip.Getty\Zhenskiy.doktor2.e16.2013.WEBDLRip.Getty.avi
Format : AVI
Format/Info : Audio Video Interleave
File size : 550 MiB
Duration : 42mn 15s
Overall bit rate : 1 821 Kbps
Video
ID : 0
Format : MPEG-4 Visual
Format profile : Advanced [email protected]
Format settings, BVOP : 1
Format settings, QPel : No
Format settings, GMC : No warppoints
Format settings, Matrix : Default (H.263)
Muxing mode : Packed bitstream
Codec ID : XVID
Codec ID/Hint : XviD
Duration : 42mn 15s
Bit rate : 1 619 Kbps
Width : 720 pixels
Height : 400 pixels
Display aspect ratio : 16:9
Frame rate : 25.000 fps
Color space : YUV
Chroma subsampling : 4:2:0
Bit depth : 8 bits
Scan type : Progressive
Compression mode : Lossy
Bits/(Pixel*Frame) : 0.225
Stream size : 489 MiB (89%)
Writing library : XviD 64
Audio
ID : 1
Format : AC-3
Format/Info : Audio Coding 3
Mode extension : CM (complete main)
Format settings, Endianness : Big
Codec ID : 2000
Duration : 42mn 15s
Bit rate mode : Constant
Bit rate : 192 Kbps
Channel(s) : 2 channels
Channel positions : Front: L R
Sampling rate : 48.0 KHz
Bit depth : 16 bits
Compression mode : Lossy
Stream size : 58.0 MiB (11%)
Alignment : Aligned on interleaves
Interleave, duration : 40 ms (1.00 video frame)
Interleave, preload duration : 512 ms

Раздача ведётся путём добавления новых серий

Раздача ведётся путём добавления новых серий; при каждом добавлении создаётся новый торрент. Чтобы начать докачку новой серии, пользователям необходимо сделать следующее:
(1) остановить скачивание,
(2) удалить старый торрент у себя из клиента (старые серии удалять не надо),
(3) скачать новый торрент и запустить его у себя в клиенте вместо старого, при этом указать клиенту путь в старую папку куда и должно происходить скачивание новых серий.
Ваш клиент при этом должен произвести хеширование (проверку) старой папки (если не производит сам - помогите ему сделать это), и будет докачивать только те серии которых у вас ещё нет. Старые серии при этом не удаляются, а продолжают раздаваться!
Eсли вы уже удалили старые серии, то предотвратить повторную закачку старых серий можно, отжав галочку в соответствующих местах при запуске нового торрента. По возможности, желательно не удалять старые серии как можно дольше чтобы релизёр не столько продолжал раздавать старые серии, а смог сконцентрироваться на новых.

Скриншоты


Other forum [Profile] [PM]
Similar theme
Forum Topic Author Torrent Replies Last Post
./templates/default/images/folder_dl.gif Эротические игры Женский коллектив: Трудовой экстаз [L] [RUS / RUS] (2003) Omen
1 | 0

0 | 2984

44

2012-12-30 12:00
Omen Latest
./templates/default/images/folder_dl.gif Разное Алекс Мэй | 11 видов женского оргазма (2013) [PDF] Omen
1 | 0

0 | 7887

118

2015-04-22 09:02
Omen Latest
Display posts from previous:    
Reply to topic

The time now is: Today 18:34

All times are GMT + 3 Hours



You cannot post new topics in this forum
You cannot reply to topics in this forum
You cannot edit your posts in this forum
You cannot delete your posts in this forum
You cannot vote in polls in this forum
You cannot attach files in this forum
You cannot download files in this forum