Today is a free download without charge Download

Большая дорога (1962) TVRip

Reply to topic
 
Author
Message

UndegraundMen ®

Longevity: 6 years 2 months

Posts: 25150

Торрент-статистика

Post 04-Apr-2013 00:03

[Quote]

Большая дорога (1962) TVRip- Русское название: Большая дорога
Год выпуска: 1962
Страна СССР, Чехословакия
Жанр: Комедия, Драма
Описание фильма:
О великом чешском писателе-сатирике Ярославе Гашеке, попавшем во время Первой мировой войны в плен к русским.
Молодой журналист Ярослав Гашек доставляет много хлопот пражской полиции. Его высказывания можно расценить как политически неблагонадёжные, он откровенно издевается над тайными агентами, а после объявления войны, в насмешку, зарегистрировался в одном из отелей под именем приехавшего из Москвы Ивана Иванова.
Мобилизованный в действующую армию, он попадает на восточный фронт и прилагает все усилия, чтобы сдаться русским солдатам…
Режиссер: Юрий Озеров
Актеры: Йозеф Абргам, Инна Гулая, Ярослав Марван, Филип Филиповски, Юрий Яковлев, Александр Кутепов, Николай Гринько, Олег Борисов, Сергей Филиппов, Йозеф Кемр
Продолжительность: 01:35:19

Видеокодек: Xvid
Битрейт видео: ~1854 Кбит/сек
Размер кадра: 688х512
Качество видео: TVRip
Аудиокодек: MP3 2Ch
Битрейт аудио: 192 Кбит/сек

Mediainfo

Полное имя : Bol`schaja_doroga.avi
Формат : AVI
Формат/Информация : Audio Video Interleave
Размер файла : 1,37 Гбайт
Продолжительность : 1 ч. 35 м.
Общий поток : 2056 Кбит/сек
Программа кодирования : VirtualDubModRus 1.5.10.2 (build 2542/release)
Библиотека кодирования : VirtualDubMod build 2542/release
Видео
Идентификатор : 0
Формат : MPEG-4 Visual
Профиль формата : Advanced [email protected]
Параметр BVOP формата : 2
Параметр QPel формата : Нет
Параметр GMC формата : Без точки перехода
Параметр матрицы формата : Default (MPEG)
Режим смешивания : Сжатый битовый поток
Идентификатор кодека : XVID
Идентификатор кодека/Подсказка : XviD
Продолжительность : 1 ч. 35 м.
Битрейт : 1854 Кбит/сек
Ширина : 688 пикселей
Высота : 512 пикселей
Соотношение сторон : 4:3
Частота кадров : 25,000 кадров/сек
Цветовое пространство : YUV
Субдискретизация насыщенности : 4:2:0
Битовая глубина : 8 бит
Тип развёртки : Прогрессивная
Метод сжатия : С потерями
Бит/(Пиксели*Кадры) : 0.211
Размер потока : 1,23 Гбайт (90%)
Библиотека кодирования : XviD 64
Аудио
Идентификатор : 1
Формат : MPEG Audio
Версия формата : Version 1
Профиль формата : Layer 3
Режим : Joint stereo
Расширение режима : MS Stereo
Идентификатор кодека : 55
Идентификатор кодека/Подсказка : MP3
Продолжительность : 1 ч. 35 м.
Вид битрейта : Постоянный
Битрейт : 192 Кбит/сек
Каналы : 2 канала
Частота : 48,0 КГц
Метод сжатия : С потерями
Размер потока : 131 Мбайт (9%)
Выравнивание : Соединение по промежуткам
Продолжительность промежутка : 40 мс. (1,00 видеокадр)
Время предзагрузки промежутка : 504 мс.
Библиотека кодирования : LAME3.97
Настройки программы : -m j -V 4 -q 0 -b 192
Скриншоты:

Время раздачи: До первых пяти.
Other forum [Profile] [PM]
Similar theme
Forum Topic Author Torrent Replies Last Post
./templates/default/images/folder_dl.gif Психология, Тренинг, Саморазвитие Лора Вандеркам | Книга о потерянном времени. У вас больше возможностей, чем вы думаете (2015) [PDF, EPUB, FB2] }{@R0N
1 | 0

0 | 899

15

2018-01-06 12:11
}{@R0N Latest
./templates/default/images/folder_dl.gif Техническая и научно-популярная литература Сергей Попов | Вселенная. Краткий путеводитель по пространству и времени: от Солнечной системы до самых далеких галактик и от Большого взрыва до будущего Вселенной (2018) [FB2] }{@R0N
1 | 0

0 | 676

7

2018-12-08 23:06
}{@R0N Latest
./templates/default/images/folder_dl.gif Техническая и научно-популярная литература Стивен Хокинг | Краткие ответы на большие вопросы (2018) [FB2] }{@R0N
1 | 0

0 | 609

5

2019-01-05 23:08
}{@R0N Latest
./templates/default/images/folder_dl.gif Новинки (HD|DVD|BD|WEB|TV|SAT|PDTV|-Rip) Разбойники с большой дороги / The Highwaymen (Джон Ли Хэнкок) [2019 г., триллер, драма, криминал, детектив, WEB-DLRip]DUB | АРК-ТВ Studio & VSI International kilmister777
1 | 0

0 | 380

0

2019-03-29 15:25
kilmister777 Latest
Display posts from previous:    
Reply to topic

The time now is: Today 13:12

All times are GMT + 3 Hours



You cannot post new topics in this forum
You cannot reply to topics in this forum
You cannot edit your posts in this forum
You cannot delete your posts in this forum
You cannot vote in polls in this forum
You cannot attach files in this forum
You cannot download files in this forum