Сегодня идет свободное скачивание без начисления Download

Большая дорога (1962) TVRip

Ответить на тему
 
Автор
Сообщение

UndegraundMen ®

Стаж: 5 лет 9 месяцев

Сообщений: 25860

Торрент-статистика

Пост 04-Апр-2013 00:03

[Цитировать]

Большая дорога (1962) TVRip- Русское название: Большая дорога
Год выпуска: 1962
Страна СССР, Чехословакия
Жанр: Комедия, Драма
Описание фильма:
О великом чешском писателе-сатирике Ярославе Гашеке, попавшем во время Первой мировой войны в плен к русским.
Молодой журналист Ярослав Гашек доставляет много хлопот пражской полиции. Его высказывания можно расценить как политически неблагонадёжные, он откровенно издевается над тайными агентами, а после объявления войны, в насмешку, зарегистрировался в одном из отелей под именем приехавшего из Москвы Ивана Иванова.
Мобилизованный в действующую армию, он попадает на восточный фронт и прилагает все усилия, чтобы сдаться русским солдатам…
Режиссер: Юрий Озеров
Актеры: Йозеф Абргам, Инна Гулая, Ярослав Марван, Филип Филиповски, Юрий Яковлев, Александр Кутепов, Николай Гринько, Олег Борисов, Сергей Филиппов, Йозеф Кемр
Продолжительность: 01:35:19

Видеокодек: Xvid
Битрейт видео: ~1854 Кбит/сек
Размер кадра: 688х512
Качество видео: TVRip
Аудиокодек: MP3 2Ch
Битрейт аудио: 192 Кбит/сек

Mediainfo

Полное имя : Bol`schaja_doroga.avi
Формат : AVI
Формат/Информация : Audio Video Interleave
Размер файла : 1,37 Гбайт
Продолжительность : 1 ч. 35 м.
Общий поток : 2056 Кбит/сек
Программа кодирования : VirtualDubModRus 1.5.10.2 (build 2542/release)
Библиотека кодирования : VirtualDubMod build 2542/release
Видео
Идентификатор : 0
Формат : MPEG-4 Visual
Профиль формата : Advanced [email protected]
Параметр BVOP формата : 2
Параметр QPel формата : Нет
Параметр GMC формата : Без точки перехода
Параметр матрицы формата : Default (MPEG)
Режим смешивания : Сжатый битовый поток
Идентификатор кодека : XVID
Идентификатор кодека/Подсказка : XviD
Продолжительность : 1 ч. 35 м.
Битрейт : 1854 Кбит/сек
Ширина : 688 пикселей
Высота : 512 пикселей
Соотношение сторон : 4:3
Частота кадров : 25,000 кадров/сек
Цветовое пространство : YUV
Субдискретизация насыщенности : 4:2:0
Битовая глубина : 8 бит
Тип развёртки : Прогрессивная
Метод сжатия : С потерями
Бит/(Пиксели*Кадры) : 0.211
Размер потока : 1,23 Гбайт (90%)
Библиотека кодирования : XviD 64
Аудио
Идентификатор : 1
Формат : MPEG Audio
Версия формата : Version 1
Профиль формата : Layer 3
Режим : Joint stereo
Расширение режима : MS Stereo
Идентификатор кодека : 55
Идентификатор кодека/Подсказка : MP3
Продолжительность : 1 ч. 35 м.
Вид битрейта : Постоянный
Битрейт : 192 Кбит/сек
Каналы : 2 канала
Частота : 48,0 КГц
Метод сжатия : С потерями
Размер потока : 131 Мбайт (9%)
Выравнивание : Соединение по промежуткам
Продолжительность промежутка : 40 мс. (1,00 видеокадр)
Время предзагрузки промежутка : 504 мс.
Библиотека кодирования : LAME3.97
Настройки программы : -m j -V 4 -q 0 -b 192
Скриншоты:

Время раздачи: До первых пяти.
Вне форума [Профиль] [ЛС]
Похожие темы
Форум Тема Автор Торрент Отв. Посл. сообщение
./templates/default/images/folder_dl.gif Бизнес, Право, Экономика, Финансы Большая Библиотека Инвестора - Ричард Ферри - Всё о распределении активов. Лёгкий способ начать свой путь [2013, PDF, RUS] Omen
1 | 0

0 | 935

8

2016-04-02 00:00
Omen Последнее
./templates/default/images/folder_dl.gif Домоводство, Сад, Огород, Хобби Галина Кизима | Большая энциклопедия садовода-огородника от А до Я (2017) [FB2] }{@R0N
2 | 0

0 | 1671

23

2017-02-16 19:40
}{@R0N Последнее
./templates/default/images/folder_dl.gif Психология, Тренинг, Саморазвитие Лора Вандеркам | Книга о потерянном времени. У вас больше возможностей, чем вы думаете (2015) [PDF, EPUB, FB2] }{@R0N
1 | 0

0 | 673

12

2018-01-06 12:11
}{@R0N Последнее
./templates/default/images/folder_dl.gif Бизнес, Право, Экономика, Финансы Даниэль Дрешер | Основы блокчейна: вводный курс для начинающих в 25 небольших главах (2018) [PDF, RTF] }{@R0N
1 | 0

0 | 1009

16

2018-02-14 20:29
}{@R0N Последнее
Показать сообщения:    
Ответить на тему

Текущее время: Сегодня 22:36

Часовой пояс: GMT + 3



Вы не можете начинать темы
Вы не можете отвечать на сообщения
Вы не можете редактировать свои сообщения
Вы не можете удалять свои сообщения
Вы не можете голосовать в опросах
Вы не можете прикреплять файлы к сообщениям
Вы не можете скачивать файлы