Today is a free download without charge Download

Катерина. Другая жизнь / Сезон: 4 / Серии: 1 из 8 (Андрей Щербинин) [2012, мелодрама, HDTVRip]

Reply to topic
 
Author
Message

Omen ®

Longevity: 9 years 1 month

Posts: 181086

Торрент-статистика

Post 03-Apr-2013 22:08

[Quote]

Катерина 4. Другая жизнь -Год выпуска: 2012
Производство: Россия, Студия "Панорама"
Жанр: мелодрама
Продолжительность: 00:44:00
Режиссёр: Андрей Щербинин
В ролях: Ирина Розанова, Александр Блок, Алиса Седова, Сергей Маркеев, Сергей Лосев, Мария Валешная, Ирина Цветкова, Александр Кудренко, Светлана Смирнова, Сергей Уманов, Геннадий Смирнов, Виталий Салтыков, Владимир Крылов, Дарья Юргенс, Вадим Гущин, Юлия Морозова
Описание: Лидии Викторовне Гориной, ставшей матерью для двух приёмных детей, приходится столкнуться с новыми жизненными испытаниями. И на сей раз под ударом оказалась её главная надежда и опора - любимый супруг Борис Одинцов. Решив начать новое дело - строительство коттеджного посёлка на месте разрушенных бывшим мэром домов, Борис Сергеевич неожиданно разворошил осиное гнездо. Старый недоброжелатель Одинцова Щетинин с помощью своих высоких покровителей добивается смещения Бориса Сергеевича с поста директора и берёт контроль над фирмой в свои руки. Оказавшись на улице после ареста мужа, Горина начинает борьбу за свободу Одинцова и будущее свой семьи.-
Рекламы нет!-Сэмпл-Качество: HDTVRip
Формат: AVI
Видео кодек: XviD
Аудио кодек: MP3
Видео: 720x400 (16/9), 25.000 fps, 1 670 Kbps (0.232 bit/pixel)
Аудио: 48 kHz, MPEG Layer 3, 2 ch, ~128.00 kbps avg

MI

ОбщееПолное имя : I:\Катерина (Сезон 4) HDTVRip\Katerina-4.Drugaja.jizn.(01.seriya).2013.HDTVRip./*spam*/.aviФормат : AVIФормат/Информация : Audio Video InterleaveРазмер файла : 550 МбайтПродолжительность : 42 м.Общий поток : 1808 Кбит/секПрограмма кодирования : VirtualDubMod 1.5.10.3 | www.virtualdub-fr.org || (build 2550/release)Библиотека кодирования : VirtualDubMod build 2550/release
ВидеоИдентификатор : 0Формат : MPEG-4 VisualПрофиль формата : Advanced [email protected]Параметр BVOP формата : 1Параметр QPel формата : НетПараметр GMC формата : Без точки переходаПараметр матрицы формата : ВыборочнаяИдентификатор кодека : XVIDИдентификатор кодека/Подсказка : XviDПродолжительность : 42 м.Битрейт : 1670 Кбит/секШирина : 720 пикселейВысота : 400 пикселейСоотношение сторон : 16:9Частота кадров : 25,000 кадров/секЦветовое пространство : YUVСубдискретизация насыщенности : 4:2:0Битовая глубина : 8 битТип развёртки : ПрогрессивнаяМетод сжатия : С потерямиБит/(Пиксели*Кадры) : 0.232Размер потока : 508 Мбайт (92%)Библиотека кодирования : XviD 63
АудиоИдентификатор : 1Формат : MPEG AudioВерсия формата : Version 1Профиль формата : Layer 3Режим : Joint stereoРасширение режима : MS StereoИдентификатор кодека : 55Идентификатор кодека/Подсказка : MP3Продолжительность : 42 м.Вид битрейта : ПостоянныйБитрейт : 128 Кбит/секКаналы : 2 каналаЧастота : 48,0 КГцМетод сжатия : С потерямиРазмер потока : 38,9 Мбайт (7%)Выравнивание : Соединение по промежуткамПродолжительность промежутка : 40 мс. (1,00 видеокадр)Время предзагрузки промежутка : 504 мс.

Скриншоты

Внимание! Раздача ведётся путём добавления новых серий. Описание обновления торрента:

Внимание! Раздача ведётся путём добавления новых серий; при каждом добавлении создётся новый торрент. Чтобы начать докачку новой серии, пользователям необходимо сделать следующее:
(1) остановить скачивание,
(2) удалить старый торрент у себя из клиента (старые серии удалять не надо),
(3) скачать новый торрент и запустить его у себя в клиенте вместо старого, при этом указать клиенту путь в старую папку куда и должно происходить скачивание новых серий.
Ваш клиент при этом должен произвести хеширование (проверку) старой папки (если не производит сам - помогите ему сделать это), и будет докачивать только те серии которых у вас ещё нет. Старые серии при этом не удаляются, а продолжают раздаваться!
Eсли вы уже удалили старые серии, то предотвратить повторную закачку старых серий можно, отжав галочку в соответсвующих местах при запуске нового торрента. По возможности, желательно не удалять старые серии как можно дольше чтобы релизёр не столько продолжал раздавать старые серии, а смог сконцентрироваться на новых
Other forum [Profile] [PM]
Display posts from previous:    
Reply to topic

The time now is: Today 23:52

All times are GMT + 3 Hours



You cannot post new topics in this forum
You cannot reply to topics in this forum
You cannot edit your posts in this forum
You cannot delete your posts in this forum
You cannot vote in polls in this forum
You cannot attach files in this forum
You cannot download files in this forum