Today is a free download without charge Download

Хелло, Долли! / Hello, Dolly! (Джин Келли / Gene Kelly) [1969, США, Мюзикл, мелодрама, комедия, BDRip 720p] MVO + Sub Rus, Eng + Original Eng

Reply to topic
 
Author
Message

Omen ®

Longevity: 8 years 5 months

Posts: 181087

Торрент-статистика

Post 03-Apr-2013 22:08

[Quote]

Хелло, Долли! / Hello, Dolly! Страна: США
Жанр: Мюзикл, мелодрама, комедия
Год выпуска: 1969
Продолжительность: 02:28:35
Перевод: Профессиональный (многоголосый закадровый)
Cубтитры: Русские, английские

Режиссер: Джин Келли / Gene Kelly
В ролях: Барбра Стрейзанд, Уолтер Мэттау, Майкл Кроуфорд, Марианн МакЭндрю, Дэнни Локин, Э.Дж. Пикер, Джойс Амес, Томми Тьюн, Джуди Кнейз, Дэвид Херст, Фриц Фельд, Ричард Колье, Луи Армстронг

Описание:Нью-Йорк. 1890 год. «Миссис Долли Левай, организует знакомства в атмосфере элегантности и утонченности с целью заключения брака!» Такими словами начинается этот киномюзикл. Простая история о свахе, которая находит всем мужей и жен и не забывает про себя, превращена в феерическое шоу с участием актеров, певцов и танцоров.

Качество видео: BDRip (720p)
Формат видео: MKV
Видео: MPEG-4 AVC, 1280x582, 23.976 fps, 5712 kbps
Аудио 1: Русский (AC3, 48 kHz, 6 ch, 448 kbps)
Аудио 2: Английский (DTS, 48 kHz, 6 ch, 1510 kbps)
Формат субтитров: softsub (SRT)

MediaInfo

Код:
Общее
Уникальный идентификатор                 : 240263107547621919808783180433956152683 (0xB4C0FDC82DFFDDD2B6B0189111FE256B)
Полное имя                               : E:VideoHello.Dolly.1969.Blu-ray.720p.x264.DTS.MySilu.mkv
Формат                                   : Matroska
Версия формата                           : Version 2
Размер файла                             : 7,96 Гбайт
Продолжительность                        : 2 ч. 28 м.
Общий поток                              : 7671 Кбит/сек
Дата кодирования                         : UTC 2013-04-03 15:27:01
Программа кодирования                    : mkvmerge v6.1.0 ('Old Devil') built on Mar  2 2013 14:32:37
Библиотека кодирования                   : libebml v1.3.0 + libmatroska v1.4.0
Видео
Идентификатор                            : 1
Формат                                   : AVC
Формат/Информация                        : Advanced Video Codec
Профиль формата                          : [email protected]
Параметр CABAC формата                   : Да
Параметр ReFrames формата                : 8 кадров
Идентификатор кодека                     : V_MPEG4/ISO/AVC
Продолжительность                        : 2 ч. 28 м.
Битрейт                                  : 5712 Кбит/сек
Ширина                                   : 1280 пикселей
Высота                                   : 582 пикселя
Соотношение сторон                       : 2,2:1
Режим частоты кадров                     : Постоянный
Частота кадров                           : 23,976 кадра/сек
Цветовое пространство                    : YUV
Субдискретизация насыщенности            : 4:2:0
Битовая глубина                          : 8 бит
Тип развёртки                            : Прогрессивная
Бит/(Пиксели*Кадры)                      : 0.320
Размер потока                            : 5,77 Гбайт (72%)
Заголовок                                : Hello.Dolly.1969.Blu-ray.720p.x264.DTS.MySilu
Библиотека кодирования                   : x264 core 130 r2273 b3065e6
Настройки программы                      : cabac=1 / ref=8 / deblock=1:-2:-2 / analyse=0x3:0x133 / me=umh / subme=9 / psy=1 / psy_rd=1.20:0.20 / mixed_ref=1 / me_range=16 / chroma_me=1 / trellis=2 / 8x8dct=1 / cqm=0 / deadzone=21,11 / fast_pskip=1 / chroma_qp_offset=-3 / threads=6 / lookahead_threads=1 / sliced_threads=0 / nr=0 / decimate=0 / interlaced=0 / bluray_compat=0 / constrained_intra=0 / bframes=3 / b_pyramid=2 / b_adapt=2 / b_bias=0 / direct=3 / weightb=1 / open_gop=0 / weightp=2 / keyint=240 / keyint_min=1 / scenecut=40 / intra_refresh=0 / rc_lookahead=60 / rc=2pass / mbtree=0 / bitrate=5712 / ratetol=1.0 / qcomp=0.60 / qpmin=10 / qpmax=51 / qpstep=4 / cplxblur=20.0 / qblur=0.5 / vbv_maxrate=38000 / vbv_bufsize=38000 / nal_hrd=none / ip_ratio=1.40 / pb_ratio=1.30 / aq=1:1.00
Язык                                     : English
Default                                  : Да
Forced                                   : Нет
Аудио #1
Идентификатор                            : 2
Формат                                   : AC-3
Формат/Информация                        : Audio Coding 3
Расширение режима                        : CM (complete main)
Параметр Endianness формата              : Big
Идентификатор кодека                     : A_AC3
Продолжительность                        : 2 ч. 28 м.
Вид битрейта                             : Постоянный
Битрейт                                  : 448 Кбит/сек
Каналы                                   : 6 каналов
Расположение каналов                     : Front: L C R, Side: L R, LFE
Частота                                  : 48,0 КГц
Битовая глубина                          : 16 бит
Метод сжатия                             : С потерями
Размер потока                            : 476 Мбайт (6%)
Заголовок                                : MVO DD [email protected] kbps
Язык                                     : Russian
Default                                  : Да
Forced                                   : Нет
Аудио #2
Идентификатор                            : 3
Формат                                   : DTS
Формат/Информация                        : Digital Theater Systems
Режим                                    : 16
Параметр Endianness формата              : Big
Идентификатор кодека                     : A_DTS
Продолжительность                        : 2 ч. 28 м.
Вид битрейта                             : Постоянный
Битрейт                                  : 1509 Кбит/сек
Каналы                                   : 6 каналов
Расположение каналов                     : Front: L C R, Side: L R, LFE
Частота                                  : 48,0 КГц
Битовая глубина                          : 24 бит
Метод сжатия                             : С потерями
Размер потока                            : 1,57 Гбайт (20%)
Заголовок                                : DTS [email protected] kbps
Язык                                     : English
Default                                  : Нет
Forced                                   : Нет
Текст #1
Идентификатор                            : 4
Формат                                   : UTF-8
Идентификатор кодека                     : S_TEXT/UTF8
Идентификатор кодека/Информация          : UTF-8 Plain Text
Заголовок                                : Russian [Force]
Язык                                     : Russian
Default                                  : Да
Forced                                   : Да
Текст #2
Идентификатор                            : 5
Формат                                   : UTF-8
Идентификатор кодека                     : S_TEXT/UTF8
Идентификатор кодека/Информация          : UTF-8 Plain Text
Заголовок                                : Russian [Full]
Язык                                     : Russian
Default                                  : Нет
Forced                                   : Нет
Текст #3
Идентификатор                            : 6
Формат                                   : UTF-8
Идентификатор кодека                     : S_TEXT/UTF8
Идентификатор кодека/Информация          : UTF-8 Plain Text
Заголовок                                : English
Язык                                     : English
Default                                  : Нет
Forced                                   : Нет
Текст #4
Идентификатор                            : 7
Формат                                   : UTF-8
Идентификатор кодека                     : S_TEXT/UTF8
Идентификатор кодека/Информация          : UTF-8 Plain Text
Заголовок                                : English [SDH]
Язык                                     : English
Default                                  : Нет
Forced                                   : Нет
Меню
00:00:00.000                             : en:00:00:00.000
00:06:44.821                             : en:00:06:44.821
00:09:45.919                             : en:00:09:45.919
00:15:48.865                             : en:00:15:48.865
00:24:00.397                             : en:00:24:00.397
00:25:59.057                             : en:00:25:59.057
00:31:08.325                             : en:00:31:08.325
00:32:23.608                             : en:00:32:23.608
00:36:43.827                             : en:00:36:43.827
00:39:37.500                             : en:00:39:37.500
00:46:56.313                             : en:00:46:56.313
00:56:27.593                             : en:00:56:27.593
01:05:26.881                             : en:01:05:26.881
01:16:09.607                             : en:01:16:09.607
01:18:18.527                             : en:01:18:18.527
01:22:07.131                             : en:01:22:07.131
01:26:21.301                             : en:01:26:21.301
01:29:19.229                             : en:01:29:19.229
01:32:13.027                             : en:01:32:13.027
01:41:08.062                             : en:01:41:08.062
01:46:40.185                             : en:01:46:40.185
02:00:32.767                             : en:02:00:32.767
02:06:26.579                             : en:02:06:26.579
02:11:40.976                             : en:02:11:40.976
02:18:23.128                             : en:02:18:23.128
02:23:40.153                             : en:02:23:40.153
02:26:37.539                             : en:02:26:37.539
02:27:03.314                             : en:02:27:03.314
x264 [info]: frame I:1416  Avg QP:18.97  size:155261
x264 [info]: frame P:60389 Avg QP:21.05  size: 53147
x264 [info]: frame B:151963 Avg QP:22.46  size: 19325

Награды и премии

Скриншоты



Other forum [Profile] [PM]
Display posts from previous:    
Reply to topic

The time now is: Today 11:56

All times are GMT + 3 Hours



You cannot post new topics in this forum
You cannot reply to topics in this forum
You cannot edit your posts in this forum
You cannot delete your posts in this forum
You cannot vote in polls in this forum
You cannot attach files in this forum
You cannot download files in this forum