Today is a free download without charge Download

Black Label Society - The European Invasion - Doom Troopin’ Live [2010, Heavy Metal, Southern Metal, BDRip 720p]

Reply to topic
 
Author
Message

Omen ®

Longevity: 8 years 3 months

Posts: 181087

Торрент-статистика

Post 03-Apr-2013 22:08

[Quote]

Black Label Society - The European Invasion - Doom Troopin’ Live- Жанр: Heavy Metal, Southern Metal
Продолжительность: 2:27
Год выпуска: 2010-Описание:
Европейское турне 2005 г. Black Label Society в поддержку альбома "Mafia". Полное выступление в Париже и 4 композиции с концерта в Лондонской Астории.
Треклист:
Paris Chapter:
01 Intro Jam
02 Stoned And Drunk
03 Destruction Overdrive
04 Been a Long Time
05 Ironman Interlude
06 Funeral Bell
07 Suffering Overdue
08 In This River
09 Suicide Messiah
10 Demise of Sanity
11 Spread Your Wings
12 Solo Acoustic Jam
13 Spoke In The Wheel
14 Fire It Up
15 Stillborn
16 Genocide Junkies
London Chapter:
01 Been a Long Time
02 Suicide Messiah
03 Stillborn Jam
04 Genocide Junkies
-Качество: BDRip
Контейнер: MKV
Видео кодек: H.264
Аудио кодек: DTS, FLAC
Видео: 1276*720 / 16:9 / 6907 Kbps / 23.976 fps
Аудио#1: DTS / 5.1 / 48 kHz / 1509 kbps / 16-bit
Аудио#2: FLAC / 2.0 / 48 kHz / 979 kbps / 16-bit

Mediainfo

Код:
General
Unique ID                                : 218933464341583779988871847633345291096 (0xA4B50D2DD19BB681B7C34D34C99FA358)
Complete name                            : E:\BLACKLABELSOCIETY\Black.Label Society.The. European. Invasion.Paris.BDRip.720p.DTS.mkv
Format                                   : Matroska
Format version                           : Version 4 / Version 2
File size                                : 7.60 GiB
Duration                                 : 1h 54mn
Overall bit rate mode                    : Variable
Overall bit rate                         : 9 536 Kbps
Encoded date                             : UTC 2013-03-21 07:28:21
Writing application                      : mkvmerge v6.1.0 ('Old Devil') built on Mar  2 2013 14:32:37
Writing library                          : libebml v1.3.0 + libmatroska v1.4.0
Video
ID                                       : 1
Format                                   : AVC
Format/Info                              : Advanced Video Codec
Format profile                           : [email protected]
Format settings, CABAC                   : Yes
Format settings, ReFrames                : 9 frames
Codec ID                                 : V_MPEG4/ISO/AVC
Duration                                 : 1h 54mn
Width                                    : 1 276 pixels
Height                                   : 720 pixels
Display aspect ratio                     : 16:9
Frame rate mode                          : Constant
Frame rate                               : 23.976 fps
Color space                              : YUV
Chroma subsampling                       : 4:2:0
Bit depth                                : 8 bits
Scan type                                : Progressive
Writing library                          : x264 core 130 r2273 b3065e6
Encoding settings                        : cabac=1 / ref=9 / deblock=1:-1:-1 / analyse=0x3:0x133 / me=umh / subme=9 / psy=1 / psy_rd=1.00:0.00 / mixed_ref=1 / me_range=16 / chroma_me=1 / trellis=2 / 8x8dct=1 / cqm=0 / deadzone=21,11 / fast_pskip=0 / chroma_qp_offset=-2 / threads=12 / lookahead_threads=1 / sliced_threads=0 / nr=0 / decimate=1 / interlaced=0 / bluray_compat=0 / constrained_intra=0 / bframes=6 / b_pyramid=2 / b_adapt=2 / b_bias=0 / direct=3 / weightb=1 / open_gop=0 / weightp=2 / keyint=250 / keyint_min=23 / scenecut=40 / intra_refresh=0 / rc_lookahead=60 / rc=crf / mbtree=0 / crf=19.0 / qcomp=0.60 / qpmin=0 / qpmax=69 / qpstep=4 / vbv_maxrate=40000 / vbv_bufsize=30000 / crf_max=0.0 / nal_hrd=none / ip_ratio=1.40 / pb_ratio=1.30 / aq=1:1.00
Default                                  : Yes
Forced                                   : No
Audio #1
ID                                       : 2
Format                                   : DTS
Format/Info                              : Digital Theater Systems
Mode                                     : 16
Format settings, Endianness              : Big
Codec ID                                 : A_DTS
Duration                                 : 1h 54mn
Bit rate mode                            : Constant
Bit rate                                 : 1 509 Kbps
Channel(s)                               : 6 channels
Channel positions                        : Front: L C R, Side: L R, LFE
Sampling rate                            : 48.0 KHz
Bit depth                                : 24 bits
Compression mode                         : Lossy
Stream size                              : 1.20 GiB (16%)
Title                                    : DTS 5.1 1509 Kbps
Language                                 : English
Default                                  : Yes
Forced                                   : No
Audio #2
ID                                       : 3
Format                                   : FLAC
Format/Info                              : Free Lossless Audio Codec
Codec ID                                 : A_FLAC
Duration                                 : 1h 54mn
Bit rate mode                            : Variable
Channel(s)                               : 2 channels
Sampling rate                            : 48.0 KHz
Bit depth                                : 16 bits
Title                                    : FLAC 2.0 979 Kbps
Writing library                          : libFLAC 1.2.1 (UTC 2007-09-17)
Language                                 : English
Default                                  : No
Forced                                   : No
Menu
00:00:00.000                             : en:Intro Jam
00:04:17.791                             : en:Stoned And Drunk
00:09:23.363                             : en:Destruction Overdrive
00:14:28.768                             : en:Been a Long Time
00:17:34.987                             : en:Ironman Interlude
00:18:58.237                             : en:Funeral Bell
00:24:02.574                             : en:Suffering Overdue
00:28:38.283                             : en:In This River
00:41:57.882                             : en:Suicide Messiah
00:51:16.006                             : en:Demise of Sanity
00:54:55.792                             : en:Spread Your Wings
00:58:24.735                             : en:Solo Acoustic Jam
01:10:44.173                             : en:Spoke In The Wheel
01:22:48.564                             : en:Fire It Up
01:27:31.480                             : en:Stillborn
01:38:46.988                             : en:Genocide Junkies

Скриншоты

London Chapter:
Видео: 1276*720 / 16:9 / 4937 Kbps / 23.976 fps
Аудио#1: DTS / 5.1 / 48 kHz / 1509 kbps / 16-bit
Аудио#2: FLAC / 2.0 / 48 kHz / 965 kbps / 16-bit

Mediainfo

Код:
General
Unique ID                                : 242195792728779782673808736236581102650 (0xB6353684AF162FCF9EC55CCC480B243A)
Complete name                            : E:\BLACKLABELSOCIETY\Black Label Society - The European Invasion BDRip 720p\Black.Label Society.The.European.Invasion.London.BDRip.720p.DTS.mkv
Format                                   : Matroska
Format version                           : Version 4 / Version 2
File size                                : 1.74 GiB
Duration                                 : 33mn 33s
Overall bit rate mode                    : Variable
Overall bit rate                         : 7 411 Kbps
Encoded date                             : UTC 2013-04-02 14:18:20
Writing application                      : mkvmerge v6.1.0 ('Old Devil') built on Mar  2 2013 14:32:37
Writing library                          : libebml v1.3.0 + libmatroska v1.4.0
Video
ID                                       : 1
Format                                   : AVC
Format/Info                              : Advanced Video Codec
Format profile                           : [email protected]
Format settings, CABAC                   : Yes
Format settings, ReFrames                : 9 frames
Codec ID                                 : V_MPEG4/ISO/AVC
Duration                                 : 33mn 33s
Width                                    : 1 276 pixels
Height                                   : 720 pixels
Display aspect ratio                     : 16:9
Frame rate mode                          : Constant
Frame rate                               : 23.976 fps
Color space                              : YUV
Chroma subsampling                       : 4:2:0
Bit depth                                : 8 bits
Scan type                                : Progressive
Writing library                          : x264 core 130 r2273 b3065e6
Encoding settings                        : cabac=1 / ref=9 / deblock=1:-1:-1 / analyse=0x3:0x133 / me=umh / subme=9 / psy=1 / psy_rd=1.00:0.00 / mixed_ref=1 / me_range=16 / chroma_me=1 / trellis=2 / 8x8dct=1 / cqm=0 / deadzone=21,11 / fast_pskip=0 / chroma_qp_offset=-2 / threads=12 / lookahead_threads=1 / sliced_threads=0 / nr=0 / decimate=1 / interlaced=0 / bluray_compat=0 / constrained_intra=0 / bframes=6 / b_pyramid=2 / b_adapt=2 / b_bias=0 / direct=3 / weightb=1 / open_gop=0 / weightp=2 / keyint=250 / keyint_min=23 / scenecut=40 / intra_refresh=0 / rc_lookahead=60 / rc=crf / mbtree=0 / crf=19.0 / qcomp=0.60 / qpmin=0 / qpmax=69 / qpstep=4 / vbv_maxrate=40000 / vbv_bufsize=30000 / crf_max=0.0 / nal_hrd=none / ip_ratio=1.40 / pb_ratio=1.30 / aq=1:1.00
Default                                  : Yes
Forced                                   : No
Audio #1
ID                                       : 2
Format                                   : DTS
Format/Info                              : Digital Theater Systems
Mode                                     : 16
Format settings, Endianness              : Big
Codec ID                                 : A_DTS
Duration                                 : 33mn 33s
Bit rate mode                            : Constant
Bit rate                                 : 1 509 Kbps
Channel(s)                               : 6 channels
Channel positions                        : Front: L C R, Side: L R, LFE
Sampling rate                            : 48.0 KHz
Bit depth                                : 16 bits
Compression mode                         : Lossy
Stream size                              : 362 MiB (20%)
Title                                    : DTS 5.1
Language                                 : English
Default                                  : Yes
Forced                                   : No
Audio #2
ID                                       : 3
Format                                   : FLAC
Format/Info                              : Free Lossless Audio Codec
Codec ID                                 : A_FLAC
Duration                                 : 33mn 33s
Bit rate mode                            : Variable
Channel(s)                               : 2 channels
Sampling rate                            : 48.0 KHz
Bit depth                                : 16 bits
Title                                    : FLAC 2.0 965 Kbps
Writing library                          : libFLAC 1.2.1 (UTC 2007-09-17)
Language                                 : English
Default                                  : No
Forced                                   : No
Menu
00:00:00.000                             : en:Been a Long Time
00:03:38.618                             : en:Suicide Messiah
00:15:17.016                             : en:Stillborn Jam
00:24:27.199                             : en:Genocide Junkies

Скриншоты

Рип переделан, перекачайте торрент-файл
Other forum [Profile] [PM]
Display posts from previous:    
Reply to topic

The time now is: Today 10:24

All times are GMT + 3 Hours



You cannot post new topics in this forum
You cannot reply to topics in this forum
You cannot edit your posts in this forum
You cannot delete your posts in this forum
You cannot vote in polls in this forum
You cannot attach files in this forum
You cannot download files in this forum