Today is a free download without charge Download

Ляпис Трубецкой - Live in Lugansk 2013, "Коллизей" [2013, Rock, HDTV 1080i]

Reply to topic
 
Author
Message

Omen ®

Longevity: 8 years 4 months

Posts: 181087

Торрент-статистика

Post 03-Apr-2013 22:08

[Quote]

Ляпис Трубецкой - Live in Lugansk 2013, "Коллизей"
Жанр: Rock
Продолжительность: 1:34:38
Год выпуска: 2013
Описание: Концерт группы Ляпис Трубецкой в Луганском "Коллизее" в рамках грандиозного тура "Lyapis Crew"
Качество: HDTV 1080p
Контейнер: MP4
Видео кодек: H.264
Аудио кодек: AAC
Видео: H.264 1280x720 31,9 Mb/s 29.97 fps
Аудио: AAC 48 000 Гц 160 Кбит/с, стерео
Треклист:
1. Lyapis Crew
2. Буревестник
3. Золотая антилопа
4. Капитал
5. Панас
6. Броненосец
7. Бесы
8. 12 обезьян
9. Африка
10. Цмок ды Арол
11. Клип
12. Маеш яйцы?!
13. Железный
14. Галактика
15. Я верю
16. Болт
17. Прости меня котик
18. Принцесса
19. Шут
20. Манифест
21. Рабкор
22. Священный огонь
23. Не быць скотам
24. Грай
25. Убей раба!

Отчёт MediaInfo / BDInfo

I:\Ляпис Трубецкой\Lyapis_Trubetskoy_Lugansk_Kollizey_1.03.2013_Full_HD_1080p.mp4 General Complete name : I:\Ляпис Трубецкой\Lyapis_Trubetskoy_Lugansk_Kollizey_1.03.2013_Full_HD_1080p.mp4 Format : MPEG-4 Format profile : Base Media / Version 2 Codec ID : mp42 File size : 21.2 GiB Duration : 1h 34mn Overall bit rate : 32.1 Mbps Encoded date : UTC 2013-04-03 07:00:16 Tagged date : UTC 2013-04-03 07:00:16 Video #1 ID : 1 Format : AVC Format/Info : Advanced Video Codec Format profile : [email protected] Format settings, CABAC : Yes Format settings, ReFrames : 3 frames Codec ID : avc1 Codec ID/Info : Advanced Video Coding Duration : 1h 34mn Bit rate mode : Variable Bit rate : 31.9 Mbps Width : 1 920 pixels Height : 1 080 pixels Display aspect ratio : 16:9 Frame rate mode : Constant Frame rate : 29.970 fps Standard : NTSC Resolution : 24 bits Colorimetry : 4:2:0 Scan type : Progressive Bits/(Pixel*Frame) : 0.513 Stream size : 21.1 GiB (99%) Language : English Encoded date : UTC 2013-04-03 07:00:16 Tagged date : UTC 2013-04-03 07:00:16 Audio #2 ID : 2 Format : AAC Format/Info : Advanced Audio Codec Format version : Version 4 Format profile : LC Format settings, SBR : No Codec ID : 40 Duration : 1h 34mn Bit rate mode : Variable Bit rate : 157 Kbps Maximum bit rate : 248 Kbps Channel(s) : 2 channels Channel positions : L R Sampling rate : 48.0 KHz Resolution : 16 bits Stream size : 107 MiB (0%) Language : English Encoded date : UTC 2013-04-03 07:00:16 Tagged date : UTC 2013-04-03 07:00:16

Скриншоты








Other forum [Profile] [PM]
Display posts from previous:    
Reply to topic

The time now is: Today 14:20

All times are GMT + 3 Hours



You cannot post new topics in this forum
You cannot reply to topics in this forum
You cannot edit your posts in this forum
You cannot delete your posts in this forum
You cannot vote in polls in this forum
You cannot attach files in this forum
You cannot download files in this forum