Today is a free download without charge Download

Заряженное оружие 1 / Боевое оружие 1 / Loaded Weapon 1 / National Lampoon's Loaded Weapon 1 (Джин Квинтано / Gene Quintano) [1993, США, боевик, комедия, HDTVRip 720p] DVO (НТВ / РТР) + 3x AVO (Михалёв, Горчаков , Володарский) + Eng + Sub (Eng)

Reply to topic
 
Author
Message

Omen ®

Longevity: 8 years 5 months

Posts: 181087

Торрент-статистика

Post 03-Apr-2013 13:52

[Quote]

Заряженное оружие 1 / Боевое оружие 1
Loaded Weapon 1 / National Lampoon's Loaded Weapon 1
- Страна: США
Жанр: боевик, комедия, криминал
Год выпуска: 1993
Продолжительность: 01:22:28
Перевод 1: Профессиональный (двухголосый закадровый) - НТВ / РТР
Перевод 2: Авторский (одноголосый закадровый) - Михалёв
Перевод 3: Авторский (одноголосый закадровый) - Горчаков
Перевод 4: Авторский (одноголосый закадровый) - Володарский
Cубтитры: английские
Оригинальная аудиодорожка: английский
Режиссер: Джин Квинтано / Gene Quintano
В ролях: Эмилио Эстевес /Emilio Estevez/, Вупи Голдберг /Whoopi Goldberg/, Сэмюэл Л. Джексон /Samuel L. Jackson/, Джон Ловитц /Jon Lovitz/, Тим Карри /Tim Curry/, Кэти Айрлэнд /Kathy Ireland/, Фрэнк МакРэй /Frank McRae/, Уильям Шэтнер /William Shatner/, Лэнс Кинси /Lance Kinsey/, Билл Нанн /Bill Nunn/, Роберт Уиллис /Willis Robert/, Вито Скотти /Vito Scotti/, Брюс Уиллис /Bruce Willis/
Описание:
Два детектива — Джек Кольт и Уэс Люгер ищут убийцу бывшей напарницы и борются с торговцем наркотиками — неким генералом Мортарсом.
Объединение "Американский пересмешник" (National Lampoon) представляет эту эксцентрическую комедию, пародирующую полицейские боевики - "Смертельное оружие", "Грязный Гарри", "Молчание ягнят" и другие, снятую в духе "Аэроплана", "Голого пистолета" и "Горячих голов". Понятно? Любители пародий получат огромное удовольствие.

IMDb: 5.90 (27 543)
Семпл: 49,6мб
Качество: HDTVRip 720p {by big1987}
Формат видео: MKV
Видео: кодек: h.264, размер кадра: 1280x678, fps: 23,976, битрейт: 4474.30 Kbps
Аудио#1: аудиокодек: AC3 2.0, 48 KHz битрейт аудио: 192 кб/с - DVO, НТВ / РТР
Аудио#2: аудиокодек: AC3 2.0, 48 KHz битрейт аудио: 192 кб/с - AVO, Михалёв
Аудио#3: аудиокодек: AC3 2.0, 48 KHz битрейт аудио: 192 кб/с - AVO, Горчаков
Аудио#4: аудиокодек: AC3 2.0, 48 KHz битрейт аудио: 192 кб/с - AVO, Володарский
Аудио#5: аудиокодек: AC3 5.1, 48 KHz битрейт аудио: 384 кб/с - Eng
Формат субтитров: softsub (SRT)
Размер рипа: 3,24Gb

x264:

frame I:948 Avg QP:16.29 size: 88737
frame P:22977 Avg QP:17.25 size: 47091
frame B:94712 Avg QP:19.03 size: 16907

MediaInfo

Format : Matroska
Format version : Version 4 / Version 2
File size : 3.24 GiB
Duration : 1h 22mn
Overall bit rate : 5 629 Kbps
Movie name : Заряженное Оружие 1 [1993, HDTVRip/720p] || big1987
Encoded date : UTC 2013-04-03 04:35:59
Writing application : mkvmerge v6.1.0 ('Old Devil') built on Mar 4 2013 09:10:42
Writing library : libebml v1.3.0 + libmatroska v1.4.0
Video
ID : 1
Format : AVC
Format/Info : Advanced Video Codec
Format profile : [email protected]
Format settings, CABAC : Yes
Format settings, ReFrames : 9 frames
Codec ID : V_MPEG4/ISO/AVC
Duration : 1h 22mn
Bit rate : 4 365 Kbps
Width : 1 280 pixels
Height : 678 pixels
Display aspect ratio : 1.888
Frame rate mode : Constant
Frame rate : 23.976 fps
Color space : YUV
Chroma subsampling : 4:2:0
Bit depth : 8 bits
Scan type : Progressive
Bits/(Pixel*Frame) : 0.210
Stream size : 2.51 GiB (78%)
Title : Заряженное Оружие 1 [1993, HDTVRip/720p] || big1987
Writing library : x264 core 130 r2273 b3065e6
Encoding settings : cabac=1 / ref=9 / deblock=1:-3:-3 / analyse=0x3:0x133 / me=umh / subme=10 / psy=1 / psy_rd=1.00:0.10 / mixed_ref=1 / me_range=32 / chroma_me=1 / trellis=2 / 8x8dct=1 / cqm=0 / deadzone=21,11 / fast_pskip=0 / chroma_qp_offset=-3 / threads=6 / lookahead_threads=1 / sliced_threads=0 / nr=0 / decimate=0 / interlaced=0 / bluray_compat=0 / constrained_intra=0 / bframes=9 / b_pyramid=2 / b_adapt=2 / b_bias=0 / direct=1 / weightb=1 / open_gop=0 / weightp=2 / keyint=250 / keyint_min=23 / scenecut=40 / intra_refresh=0 / rc_lookahead=40 / rc=crf / mbtree=0 / crf=18.3 / qcomp=0.60 / qpmin=0 / qpmax=69 / qpstep=4 / vbv_maxrate=40000 / vbv_bufsize=30000 / crf_max=0.0 / nal_hrd=none / ip_ratio=1.40 / pb_ratio=1.30 / aq=1:1.00
Language : English
Default : Yes
Forced : No
Audio #1
ID : 2
Format : AC-3
Format/Info : Audio Coding 3
Mode extension : CM (complete main)
Format settings, Endianness : Big
Codec ID : A_AC3
Duration : 1h 22mn
Bit rate mode : Constant
Bit rate : 192 Kbps
Channel(s) : 2 channels
Channel positions : Front: L R
Sampling rate : 48.0 KHz
Bit depth : 16 bits
Compression mode : Lossy
Stream size : 113 MiB (3%)
Title : DVO {НТВ} [AC3 [email protected]]
Language : Russian
Default : Yes
Forced : No
Audio #2
ID : 3
Format : AC-3
Format/Info : Audio Coding 3
Mode extension : CM (complete main)
Format settings, Endianness : Big
Codec ID : A_AC3
Duration : 1h 22mn
Bit rate mode : Constant
Bit rate : 192 Kbps
Channel(s) : 2 channels
Channel positions : Front: L R
Sampling rate : 48.0 KHz
Bit depth : 16 bits
Compression mode : Lossy
Stream size : 113 MiB (3%)
Title : AVO {Михалев} [AC3 [email protected]]
Language : Russian
Default : No
Forced : No
Audio #3
ID : 4
Format : AC-3
Format/Info : Audio Coding 3
Mode extension : CM (complete main)
Format settings, Endianness : Big
Codec ID : A_AC3
Duration : 1h 22mn
Bit rate mode : Constant
Bit rate : 192 Kbps
Channel(s) : 2 channels
Channel positions : Front: L R
Sampling rate : 48.0 KHz
Bit depth : 16 bits
Compression mode : Lossy
Stream size : 113 MiB (3%)
Title : AVO {Горчаков} [AC3 [email protected]]
Language : Russian
Default : No
Forced : No
Audio #4
ID : 5
Format : AC-3
Format/Info : Audio Coding 3
Mode extension : CM (complete main)
Format settings, Endianness : Big
Codec ID : A_AC3
Duration : 1h 22mn
Bit rate mode : Constant
Bit rate : 192 Kbps
Channel(s) : 2 channels
Channel positions : Front: L R
Sampling rate : 48.0 KHz
Bit depth : 16 bits
Compression mode : Lossy
Stream size : 113 MiB (3%)
Title : AVO {Володарский} [AC3 [email protected]]
Language : Russian
Default : No
Forced : No
Audio #5
ID : 6
Format : AC-3
Format/Info : Audio Coding 3
Mode extension : CM (complete main)
Format settings, Endianness : Big
Codec ID : A_AC3
Duration : 1h 22mn
Bit rate mode : Constant
Bit rate : 384 Kbps
Channel(s) : 6 channels
Channel positions : Front: L C R, Side: L R, LFE
Sampling rate : 48.0 KHz
Bit depth : 16 bits
Compression mode : Lossy
Stream size : 227 MiB (7%)
Title : [AC3 [email protected]]
Language : English
Default : No
Forced : No
Text
ID : 7
Format : UTF-8
Codec ID : S_TEXT/UTF8
Codec ID/Info : UTF-8 Plain Text
Language : English
Default : No
Forced : No

Скриншоты


Other forum [Profile] [PM]
Display posts from previous:    
Reply to topic

The time now is: Today 11:29

All times are GMT + 3 Hours



You cannot post new topics in this forum
You cannot reply to topics in this forum
You cannot edit your posts in this forum
You cannot delete your posts in this forum
You cannot vote in polls in this forum
You cannot attach files in this forum
You cannot download files in this forum