Today is a free download without charge Download

Xoббит: Heжданнoe путeшeствиe / The Ноbbit: An Unехресted Jоurnеy (Питep Джeксoн / Pitеr Djеksоn) [2012, США, Новая Зеландия, Фэнтези, приключения, Blu-ray 1080p CEE] [2-Disc Edition] [EUR]

Reply to topic
 
Author
Message

Omen ®

Longevity: 8 years 5 months

Posts: 181087

Торрент-статистика

Post 03-Apr-2013 09:48

[Quote]

Хоббит: Нежданное путешествие / The Hobbit: An Unexpected Journey
«From the smallest beginnings come the greatest legends.»
- Страна: США, Новая Зеландия
Студия: 3Foot7, Metro-Goldwyn-Mayer (MGM), New Line Cinema, WingNut Films
Жанр: Фэнтези, приключения
Год выпуска: 2012
Продолжительность: 02:49:37-Перевод: Профессиональный (дублированный)[CEE] Английский; Чешский; Тайский; Турецкий; Украинский
Субтитры: Китайские, корейские, индонезийские, хорватские, чешские, эстонские, греческие, латышские, литовские, русские, сербские, словенские, тайские, турецкие
Русские субтитры: Есть-Режиссер: Питер Джексон / Piter Djekson-В ролях: Мартин Фриман (Bilbo), Иэн МакКеллен (Gandalf), Ричард Армитидж (Thorin), Джеймс Несбитт (Bofur), Кен Стотт (Balin), Грэм МакТавиш (Dwalin), Дин О’Горман (Fili), Эйдан Тернер (Kili), Джед Брофи (Nori), Марк Хэдлоу (Dori / Bert Troll), Джон Коллен (Oin), Питер Хэмблтон (Gloin / William Troll), Уильям Кирчер (Bifur / Tom Troll), Стивен Хантер (Bombur), Энди Серкис (Gollum), Кейт Бланшетт (Galadriel), Хьюго Уивинг (Elrond), Элайджа Вуд (Frodo), Иэн Холм (Old Bilbo), Кристофер Ли (Saruman), Адам Браун (Ori), Сильвестр МакКой (Radagast), Бэрри Хамфриз (Great Goblin), Джеффри Томас (Thror) и др.-О фильме: Фильм повествует о путешествии Бильбо Бэггинса, который пускается в грандиозный поход, целью которого является отвоевание утраченного королевства гномов Эребор у зловещего дракона Смога. Совершенно неожиданно с хоббитом налаживает контакт волшебник Гэндальф Серый. Так Бильбо находит себя, присоединяясь к компании тринадцати гномов, возглавляемых легендарным воином, Торином Дубощитом. Их путешествие проляжет через Дикий Край, через предательские земли, населенные гоблинами и орками, смертоносными варгами и гигантскими пауками, народом, меняющим шкуры, и волшебниками. И хотя их цель находится на Востоке среди пустошей Одинокой Горы, сначала им придется выбраться из туннелей гоблинов, где Бильбо встретит существо, которое изменит его жизнь навсегда… Голлума. Здесь, один на один с Голлумом, на берегу подземного озера, непритязательный Бильбо Бэггинс обнаружит не только скрытые в глубине души хитрость и отвагу, которые удивят даже его, но и завладеет «прелестным» колечком Голлума, которое обладает нежданными и полезными свойствами… Простое золотое кольцо, c которым связана судьба всего Средиземья, нитями, о которых Бильбо не мог даже вообразить.- -CEE - Central Eastern Europe original release!
-РАЗДАЧА ОТ:
-Тип релиза: Blu-ray
Контейнер: BDMV
Видео: MPEG-4 AVC Video / 20852 kbps / 1080p / 23.976 fps / 16:9 / High Profile 4.1

Аудио #1: English DTS-HD Master Audio 7.1 / (48 kHz / 5334 kbps / 24-bit) (DTS Core: 5.1 / 48 kHz / 1509 kbps / 24-bit)
Аудио #2: Czech / Dolby Digital Audio / 5.1 / 48 kHz / 448 kbps / DN -4dB)
Аудио #3: Russian / Dolby Digital Audio / 5.1 / 48 kHz / 448 kbps / DN -4dB)
Аудио #4: Thai / Dolby Digital Audio / 5.1 / 48 kHz / 448 kbps / DN -4dB)
Аудио #5: Turkish / Dolby Digital Audio / 5.1 / 48 kHz / 448 kbps / DN -4dB)
Аудио #6: Ukrainian / Dolby Digital Audio / 5.1 / 48 kHz / 448 kbps / DN -4dB)-

На диске

• The Hobbit: An Unexpected Journey in High Definition 2D
-

Скриншоты меню

Скриншоты



-

BDInfo Report

Код:
DISC INFO:
Disc Title:     HOBBIT_PART1_2D_HDCLUB
Disc Size:      39 214 820 682 bytes
Protection:     AACS
BD-Java:        Yes
BDInfo:         0.5.8
PLAYLIST REPORT:
Name:                   00100.MPLS
Length:                 2:49:37.208 (h:m:s.ms)
Size:                   38 693 597 184 bytes
Total Bitrate:          30,42 Mbps
VIDEO:
Codec                   Bitrate             Description
-----                   -------             -----------
MPEG-4 AVC Video        20852 kbps          1080p / 23,976 fps / 16:9 / High Profile 4.1
AUDIO:
Codec                           Language        Bitrate         Description
-----                           --------        -------         -----------
DTS-HD Master Audio             English         5334 kbps       7.1 / 48 kHz / 5334 kbps / 24-bit (DTS Core: 5.1 / 48 kHz / 1509 kbps / 24-bit)
Dolby Digital Audio             Czech           448 kbps        5.1 / 48 kHz / 448 kbps / DN -4dB
Dolby Digital Audio             Russian         448 kbps        5.1 / 48 kHz / 448 kbps / DN -4dB
Dolby Digital Audio             Thai            448 kbps        5.1 / 48 kHz / 448 kbps / DN -4dB
Dolby Digital Audio             Turkish         448 kbps        5.1 / 48 kHz / 448 kbps / DN -4dB
Dolby Digital Audio             Ukrainian       448 kbps        5.1 / 48 kHz / 448 kbps / DN -4dB
SUBTITLES:
Codec                           Language        Bitrate         Description
-----                           --------        -------         -----------
Presentation Graphics           English         25,758 kbps
Presentation Graphics           Chinese         18,231 kbps
Presentation Graphics           Korean          15,865 kbps
Presentation Graphics           Indonesian      26,115 kbps
Presentation Graphics           Chinese         18,749 kbps
Presentation Graphics           Croatian        20,884 kbps
Presentation Graphics           Czech           20,502 kbps
Presentation Graphics           Estonian        17,706 kbps
Presentation Graphics           Greek           20,733 kbps
Presentation Graphics           Latvian         17,375 kbps
Presentation Graphics           Lithuanian      20,341 kbps
Presentation Graphics           Russian         17,275 kbps
Presentation Graphics           Serbian         19,590 kbps
Presentation Graphics           Slovenian       17,494 kbps
Presentation Graphics           Thai            21,075 kbps
Presentation Graphics           Turkish         21,144 kbps
Presentation Graphics           Czech           0,479 kbps
Presentation Graphics           Russian         0,421 kbps
Presentation Graphics           Thai            0,469 kbps
Presentation Graphics           Turkish         0,476 kbps
Presentation Graphics           Ukrainian       0,518 kbps
FILES:
Name            Time In         Length          Size            Total Bitrate
----            -------         ------          ----            -------------
00000.M2TS      0:00:00.000     2:49:37.208     38 693 597 184  30 416
-Бонус-Диск
Продолжительность: 02:07:07
Перевод: Русские субтитры
Тип релиза: Blu-ray
Контейнер: BDMV
Видео: MPEG-4 AVC Video / 11911 kbps / 1080p / 23.976 fps / 16:9 / High Profile 4.1
Аудио: English / 192 kbps / 2.0 / 48 kHz / DN -4dB / Dolby Surround-

На диске

► New Zealand: Home of Middle-Earth (HD, 7 minutes): Jackson and his team tour the lush, always stunning New Zealand countryside, revealing the locations used to bring The Hobbit's Middle-Earth locales to life.
► Video Blogs (HD, 127 minutes): Ten Jackson-helmed online video blogs are available, documenting (but primarily teasing) the production of the then-upcoming theatrical release of An Unexpected Journey. Two hours of content is much appreciated, don't get me wrong. But, excellent, informative and entertaining as they are, the blogs are bound by rules full-fledged production documentaries have the freedom to discard at the outset. Arriving before the film debuted, the blogs' chief goal was secrecy, making them more of an extended two-hour promo for the film than anything more extensive. Entries include:
• Start of Production (April 14, 2011)
• Location Scouting (July 9, 2011)
• Shooting Block One (July 21, 2011)
• Filming in 3D (November 4, 2011)
• Locations Part I (December 24, 2011)
• Locations Part II (March 2, 2012)
• Stone St. Studios Tour (June 6, 2012)
• Wrap of Principal Photography (July 24, 2012)
• Post-Production Overview (November 24, 2012)
• Wellington World Premiere (December 14, 2012)
► Trailers (HD, 16 minutes): Six full and alternate Unexpected Journey trailers.
► Game Trailers (HD, 2 minutes): Kingdoms of Middle-Earth, Guardians of Middle-Earth and LEGO LOTR.
-

BDInfo Report

Код:
DISC INFO:
Disc Title:     HOBBIT_PART1_BONUS_HDCLUB
Disc Size:      16 235 208 839 bytes
Protection:     AACS
BD-Java:        Yes
BDInfo:         0.5.8
PLAYLIST REPORT:
Name:                   00222.MPLS
Length:                 2:07:07.828 (h:m:s.ms)
Size:                   13 178 652 672 bytes
Total Bitrate:          13,82 Mbps
(*) Indicates included stream hidden by this playlist.
VIDEO:
Codec                   Bitrate             Description
-----                   -------             -----------
MPEG-4 AVC Video        11911 kbps          1080p / 23,976 fps / 16:9 / High Profile 4.0
AUDIO:
Codec                           Language        Bitrate         Description
-----                           --------        -------         -----------
Dolby Digital Audio             English         192 kbps        2.0 / 48 kHz / 192 kbps / DN -4dB / Dolby Surround
SUBTITLES:
Codec                           Language        Bitrate         Description
-----                           --------        -------         -----------
* Presentation Graphics         Japanese        55,649 kbps
Presentation Graphics           English         61,669 kbps
Presentation Graphics           French          50,841 kbps
Presentation Graphics           German          61,127 kbps
Presentation Graphics           Italian         58,364 kbps
Presentation Graphics           Spanish         60,357 kbps
Presentation Graphics           Dutch           52,216 kbps
Presentation Graphics           Chinese         53,755 kbps
Presentation Graphics           Korean          39,524 kbps
Presentation Graphics           Chinese         52,575 kbps
Presentation Graphics           Czech           53,990 kbps
Presentation Graphics           Greek           51,765 kbps
Presentation Graphics           Hungarian       49,118 kbps
Presentation Graphics           Polish          50,893 kbps
Presentation Graphics           Portuguese      61,432 kbps
Presentation Graphics           Russian         56,655 kbps
Presentation Graphics           Thai            57,000 kbps
Presentation Graphics           Turkish         53,937 kbps
FILES:
Name            Time In         Length          Size            Total Bitrate
----            -------         ------          ----            -------------
00001.M2TS      0:00:00.000     0:10:32.673     1 077 682 176   13 627
00002.M2TS      0:10:32.673     0:10:20.453     1 076 072 448   13 875
00004.M2TS      0:20:53.126     0:13:19.840     1 375 567 872   13 758
00024.M2TS      0:34:12.967     0:10:46.687     1 128 622 080   13 962
00025.M2TS      0:44:59.655     0:12:04.765     1 261 000 704   13 919
00026.M2TS      0:57:04.420     0:12:28.789     1 293 182 976   13 816
00027.M2TS      1:09:33.210     0:13:59.880     1 462 192 128   13 928
00028.M2TS      1:23:33.091     0:14:42.923     1 513 893 888   13 717
00029.M2TS      1:38:16.014     0:14:08.889     1 470 609 408   13 859
00030.M2TS      1:52:24.904     0:14:42.923     1 519 828 992   13 771
-
Other forum [Profile] [PM]
Display posts from previous:    
Reply to topic

The time now is: Today 20:01

All times are GMT + 3 Hours



You cannot post new topics in this forum
You cannot reply to topics in this forum
You cannot edit your posts in this forum
You cannot delete your posts in this forum
You cannot vote in polls in this forum
You cannot attach files in this forum
You cannot download files in this forum