Today is a free download without charge Download

Nine Inch Nails - After All Is Said And Done [2009, Industrial rock, industrial metal, HDCamRip]

Reply to topic
 
Author
Message

Omen ®

Longevity: 8 years 4 months

Posts: 181087

Торрент-статистика

Post 03-Apr-2013 05:44

[Quote]

Nine Inch Nails - After All Is Said And Done
Жанр: Industrial rock, industrial metal
Продолжительность: 03:15:09
Год выпуска: 2009
Описание: Выступление Nine Inch Nails в Wiltern Theater в Los Angeles, California, исполненный 10 сентября 2009.
Сетлист:
"Home"
"Somewhat Damaged"
"The Collector"
"Discipline"
"March Of The Pigs"
"Something I Can Never Have"
"The Frail"
"The Wretched"
"Ruiner"
"Head Down"
"Burn"
"Just Like You Imagined" (featuring Mike Garson)
"La Mer" (featuring Mike Garson)
"Eraser" (featuring Mike Garson)
"The Becoming" (featuring Mike Garson)
"Down In The Park" (Piano Version) (Mike Garson solo)
"Down In The Park" (featuring Gary Numan and Mike Garson)
"Metal" (featuring Gary Numan and Mike Garson)
"I Die: You Die" (featuring Gary Numan and Mike Garson)
"1,000,000"
"Letting You"
"Survivalism"
"Suck"
"Down In It"
"The Hand That Feeds"
"Head Like A Hole"
"Me, I'm Not" (featuring Atticus Ross)
"The Warning" (featuring Atticus Ross and Dave Navarro)
"Piggy (Nothing Can Stop Me Now)" (featuring Atticus Ross and Dave Navarro)
"Gave Up" (featuring Dave Navarro)
"Mr. Self Destruct" (featuring Dillinger Escape Plan)
"Wish" (featuring Dillinger Escape Plan)
"Atmosphere"
"Dead Souls"
"The Good Soldier"
"The Day The World Went Away"
"Hurt"
"In This Twilight"
Доп. информация: В записи присутствует список глав.
Качество: HDCamRip
Контейнер: M4V
Видео кодек: AVC
Аудио кодек: AAC
Видео: AVC, 1280*720, 3 756 Kbps, 29.970 fps
Аудио: AAC, 153 Kbps, 48.0 KHz, 2 channels

Отчёт MediaInfo / BDInfo

GeneralComplete name : F:\AAISAD_NIN_720p30_Michael.m4vFormat : MPEG-4Format profile : Base Media / Version 2Codec ID : mp42File size : 5.12 GiBDuration : 3h 15mnOverall bit rate mode : VariableOverall bit rate : 3 756 KbpsAlbum : after all is said and doneAlbum/Performer : Nine Inch NailsPerformer : a tiny little dotGenre : TV & FilmRecorded date : 2009Encoded date : UTC 2013-03-10 04:39:50Tagged date : UTC 2013-03-10 08:23:39Writing application : HandBrake 0.9.8 2012071700Cover : Yestvsh : after all is said and donedesc : a tiny little dot presents the final Nine Inch Nails wave goodbye show. Footage and audio was recorded by the fans on September 10, 2009 at the Wiltern theater in Los Angeles, CA. / / www.atinylittledot.com
VideoID : 1Format : AVCFormat/Info : Advanced Video CodecFormat profile : [email protected] settings, CABAC : NoFormat settings, ReFrames : 2 framesCodec ID : avc1Codec ID/Info : Advanced Video CodingDuration : 3h 15mnBit rate mode : VariableBit rate : 3 598 KbpsWidth : 1 280 pixelsHeight : 720 pixelsDisplay aspect ratio : 16:9Frame rate mode : ConstantFrame rate : 29.970 fpsColor space : YUVChroma subsampling : 4:2:0Bit depth : 8 bitsScan type : ProgressiveBits/(Pixel*Frame) : 0.130Stream size : 4.90 GiB (96%)Writing library : x264 core 120Encoding settings : cabac=0 / ref=2 / deblock=1:0:0 / analyse=0x1:0x111 / me=umh / subme=7 / psy=1 / psy_rd=1.00:0.00 / mixed_ref=1 / me_range=16 / chroma_me=1 / trellis=0 / 8x8dct=0 / cqm=0 / deadzone=21,11 / fast_pskip=1 / chroma_qp_offset=-2 / threads=6 / sliced_threads=0 / nr=0 / decimate=1 / interlaced=0 / bluray_compat=0 / constrained_intra=0 / bframes=3 / b_pyramid=0 / b_adapt=0 / b_bias=0 / direct=1 / weightb=1 / open_gop=0 / weightp=2 / keyint=300 / keyint_min=30 / scenecut=40 / intra_refresh=0 / rc_lookahead=40 / rc=crf / mbtree=1 / crf=22.0 / qcomp=0.60 / qpmin=3 / qpmax=69 / qpstep=4 / vbv_maxrate=10000 / vbv_bufsize=10000 / crf_max=0.0 / nal_hrd=none / ip_ratio=1.40 / aq=1:1.00Encoded date : UTC 2013-03-10 04:39:50Tagged date : UTC 2013-03-10 08:23:39Color primaries : BT.709Transfer characteristics : BT.709Matrix coefficients : BT.709
AudioID : 2Format : AACFormat/Info : Advanced Audio CodecFormat profile : LCCodec ID : 40Duration : 3h 15mnBit rate mode : VariableBit rate : 153 KbpsMaximum bit rate : 168 KbpsChannel(s) : 2 channelsChannel positions : Front: L RSampling rate : 48.0 KHzCompression mode : LossyDelay relative to video : 33msStream size : 213 MiB (4%)Language : EnglishEncoded date : UTC 2013-03-10 04:39:50Tagged date : UTC 2013-03-10 08:23:39
TextID : 3Format : Apple textCodec ID : textDuration : 3h 15mnBit rate mode : VariableBit rate : 1 bpsStream size : 1 002 Bytes (0%)Encoded date : UTC 2013-03-10 04:39:50Tagged date : UTC 2013-03-10 08:23:39

Скриншоты

Other forum [Profile] [PM]
Display posts from previous:    
Reply to topic

The time now is: Today 10:02

All times are GMT + 3 Hours



You cannot post new topics in this forum
You cannot reply to topics in this forum
You cannot edit your posts in this forum
You cannot delete your posts in this forum
You cannot vote in polls in this forum
You cannot attach files in this forum
You cannot download files in this forum