Today is a free download without charge Download

Хоббит: Нежданное путешествие / The Hobbit: An Unexpected Journey (2012) BDRip [1080p]

Reply to topic
 
Author
Message

Prince ®

Gender:

Longevity: 8 years 1 month

Posts: 18

Торрент-статистика

Post 02-Apr-2013 22:36

[Quote]

Хоббит: Нежданное путешествие / The Hobbit: An Unexpected Journey (2012) BDRip
«From the smallest beginnings come the greatest legends.»
- Русское название: Хоббит: Нежданное путешествие
Оригинальное название: The Hobbit: An Unexpected Journey
Год выпуска: 2012
Производство: New Line Cinema / Metro-Goldwyn-Mayer [США, Новая Зеландия]
Жанр: Фэнтези, приключения
Перевод: Дублированный Русский |Лицензия|, Дублированный Украинский |Лицензия|, Одноголосый закадровый, |Ю.Сербин|
Субтитры: Вшитые отключаемые
Язык субтитров: Русские (Forced), Украинские (Forced), Русские (Blu-ray), Русские (Voronine), Английские (SDH), Английские (SDH-Colored), Болгарские, Китайские, Чешские, Грецкие, Португальские, Испанские, Шведские
Режиссер: Питер Джексон
Актеры: Мартин Фриман, Иэн МакКеллен, Ричард Армитэдж, Джеймс Несбитт, Кен Стотт, Кейт Бланшетт, Элайджа Вуд, Хьюго Уивинг, Кристофер Ли, Энди Серкис
Описание фильма:
Фильм повествует о путешествии Бильбо Бэггинса, который пускается в поход, целью которого является отвоевание утраченного королевства гномов Эребор у зловещего дракона Смога. Совершенно неожиданно с хоббитом налаживает контакт волшебник Гэндальф Серый. Так Бильбо находит себя, присоединяясь к компании тринадцати гномов, возглавляемых легендарным воином, Торином Дубощитом. Их путешествие проляжет через Дикий Край, через предательские земли, населенные гоблинами и орками, смертоносными варгами и гигантскими пауками, народом, меняющим шкуры, и волшебниками. И хотя их цель находится на Востоке среди пустошей Одинокой Горы, сначала им придется выбраться из туннелей гоблинов, где Бильбо встретит существо, которое изменит его жизнь навсегда… Голлума.
Дата мировой премьеры: 28 ноября 2012
Дата российской премьеры: 19 декабря 2012, «Каро-Премьер»
Дата выхода DVD релиза: 11 апреля 2013, «CP Дистрибуция»
Дата выхода Blu-Ray релиза: 11 апреля 2013, «CP Дистрибуция»
Продолжительность: 02:49:37
Качество видео: BDRip
Контейнер: MKV
Видео: ~10,7 Mb/s, 1920х800
Аудио 1: Русский AC-3, 5.1, 448 kb/s |Дубляж, Blu-ray CEE|
Аудио 2: Украинский AC-3, 5.1, 448 kb/s |Дубляж, Blu-ray CEE|
Аудио 3: Русский DTS, 5.1, 1536 kb/s |Одноголосый закадровый, Ю.Сербин|
Аудио 3: Английский DTS, 5.1, 1536 kb/s

MediaInfo...

Формат : Matroska
Версия формата : Version 2
Размер файла : 17,6 Гбайт
Продолжительность : 2 ч. 49 м.
Общий поток : 14,9 Мбит/сек
Название фильма : The Hobbit: An Unexpected Journey (2012)
Дата кодирования : UTC 2013-04-01 21:01:37
Программа кодирования : mkvmerge v3.4.0 ('Rapunzel') built on May 15 2010 09:38:20
Библиотека кодирования : libebml v0.8.0 + libmatroska v0.9.0
Видео
Идентификатор : 1
Формат : AVC
Формат/Информация : Advanced Video Codec
Профиль формата : [url=mailto:[email protected]][email protected][/url]
Параметр CABAC формата : Да
Параметр ReFrames формата : 5 кадров
Идентификатор кодека : V_MPEG4/ISO/AVC
Продолжительность : 2 ч. 49 м.
Битрейт : 10,7 Мбит/сек
Ширина : 1920 пикселей
Высота : 800 пикселей
Соотношение сторон : 2,40:1
Режим частоты кадров : Постоянный
Частота кадров : 23,976 кадра/сек
Цветовое пространство : YUV
Субдискретизация насыщенности : 4:2:0
Битовая глубина : 8 бит
Тип развёртки : Прогрессивная
Бит/(Пиксели*Кадры) : 0.290
Размер потока : 12,6 Гбайт (72%)
Библиотека кодирования : x264 core 130 r2273kMod b3065e6
Настройки программы : cabac=1 / ref=5 / deblock=1:-3:-3 / analyse=0x3:0x133 / me=umh / subme=10 / psy=1 / fade_compensate=0.00 / psy_rd=1.10:0.00 / mixed_ref=1 / me_range=32 / chroma_me=1 / trellis=2 / 8x8dct=1 / cqm=0 / deadzone=21,11 / fast_pskip=0 / chroma_qp_offset=-2 / threads=18 / lookahead_threads=3 / sliced_threads=0 / nr=0 / decimate=1 / interlaced=0 / bluray_compat=0 / constrained_intra=0 / bframes=7 / b_pyramid=2 / b_adapt=2 / b_bias=0 / direct=3 / weightb=1 / open_gop=0 / weightp=2 / keyint=250 / keyint_min=23 / scenecut=40 / intra_refresh=0 / rc=crf / mbtree=0 / crf=16.5000 / qcomp=0.60 / qpmin=0 / qpmax=69 / qpstep=4 / ip_ratio=1.40 / pb_ratio=1.30 / aq=1:0.90
Язык : English
Default : Нет
Forced : Нет
Аудио #1
Идентификатор : 2
Формат : AC-3
Формат/Информация : Audio Coding 3
Расширение режима : CM (complete main)
Параметр Endianness формата : Big
Идентификатор кодека : A_AC3
Продолжительность : 2 ч. 49 м.
Вид битрейта : Постоянный
Битрейт : 448 Кбит/сек
Каналы : 6 каналов
Расположение каналов : Front: L C R, Side: L R, LFE
Частота : 48,0 КГц
Битовая глубина : 16 бит
Метод сжатия : С потерями
Размер потока : 544 Мбайт (3%)
Заголовок : AC3 5.1 @ 448 kbps - DUB, Blu-ray
Язык : Russian
Default : Да
Forced : Нет
Аудио #2
Идентификатор : 3
Формат : AC-3
Формат/Информация : Audio Coding 3
Расширение режима : CM (complete main)
Параметр Endianness формата : Big
Идентификатор кодека : A_AC3
Продолжительность : 2 ч. 49 м.
Вид битрейта : Постоянный
Битрейт : 448 Кбит/сек
Каналы : 6 каналов
Расположение каналов : Front: L C R, Side: L R, LFE
Частота : 48,0 КГц
Битовая глубина : 16 бит
Метод сжатия : С потерями
Размер потока : 544 Мбайт (3%)
Заголовок : AC3 5.1 @ 448 kbps - DUB, Blu-ray
Язык : Ukrainian
Default : Нет
Forced : Нет
Аудио #3
Идентификатор : 4
Формат : DTS
Формат/Информация : Digital Theater Systems
Режим : 16
Параметр Endianness формата : Big
Идентификатор кодека : A_DTS
Продолжительность : 2 ч. 49 м.
Вид битрейта : Постоянный
Битрейт : 1509 Кбит/сек
Каналы : 6 каналов
Расположение каналов : Front: L C R, Side: L R, LFE
Частота : 48,0 КГц
Битовая глубина : 24 бит
Метод сжатия : С потерями
Размер потока : 1,79 Гбайт (10%)
Заголовок : DTS 5.1 @ 1536 kbps - AVO, Y.Serbin
Язык : Russian
Default : Нет
Forced : Нет
Аудио #4
Идентификатор : 5
Формат : DTS
Формат/Информация : Digital Theater Systems
Режим : 16
Параметр Endianness формата : Big
Идентификатор кодека : A_DTS
Продолжительность : 2 ч. 49 м.
Вид битрейта : Постоянный
Битрейт : 1509 Кбит/сек
Каналы : 6 каналов
Расположение каналов : Front: L C R, Side: L R, LFE
Частота : 48,0 КГц
Битовая глубина : 24 бит
Метод сжатия : С потерями
Размер потока : 1,79 Гбайт (10%)
Заголовок : DTS 5.1 @ 1536 kbps
Язык : English
Default : Нет
Forced : Нет
Текст #1
Идентификатор : 6
Формат : UTF-8
Идентификатор кодека : S_TEXT/UTF8
Идентификатор кодека/Информация : UTF-8 Plain Text
Заголовок : Forced
Язык : Russian
Default : Да
Forced : Да
Текст #2
Идентификатор : 7
Формат : UTF-8
Идентификатор кодека : S_TEXT/UTF8
Идентификатор кодека/Информация : UTF-8 Plain Text
Заголовок : Forced
Язык : Ukrainian
Default : Нет
Forced : Нет
Текст #3
Идентификатор : 8
Формат : UTF-8
Идентификатор кодека : S_TEXT/UTF8
Идентификатор кодека/Информация : UTF-8 Plain Text
Заголовок : Blu-ray
Язык : Russian
Default : Нет
Forced : Нет
Текст #4
Идентификатор : 9
Формат : UTF-8
Идентификатор кодека : S_TEXT/UTF8
Идентификатор кодека/Информация : UTF-8 Plain Text
Заголовок : Voronine
Язык : Russian
Default : Нет
Forced : Нет
Текст #5
Идентификатор : 10
Формат : UTF-8
Идентификатор кодека : S_TEXT/UTF8
Идентификатор кодека/Информация : UTF-8 Plain Text
Заголовок : SDH
Язык : English
Default : Нет
Forced : Нет
Текст #6
Идентификатор : 11
Формат : UTF-8
Идентификатор кодека : S_TEXT/UTF8
Идентификатор кодека/Информация : UTF-8 Plain Text
Заголовок : SDH-Colored
Язык : English
Default : Нет
Forced : Нет
Текст #7
Идентификатор : 12
Формат : UTF-8
Идентификатор кодека : S_TEXT/UTF8
Идентификатор кодека/Информация : UTF-8 Plain Text
Язык : Bulgarian
Default : Нет
Forced : Нет
Текст #8
Идентификатор : 13
Формат : UTF-8
Идентификатор кодека : S_TEXT/UTF8
Идентификатор кодека/Информация : UTF-8 Plain Text
Язык : Chinese
Default : Нет
Forced : Нет
Текст #9
Идентификатор : 14
Формат : UTF-8
Идентификатор кодека : S_TEXT/UTF8
Идентификатор кодека/Информация : UTF-8 Plain Text
Язык : Czech
Default : Нет
Forced : Нет
Текст #10
Идентификатор : 15
Формат : UTF-8
Идентификатор кодека : S_TEXT/UTF8
Идентификатор кодека/Информация : UTF-8 Plain Text
Язык : Finnish
Default : Нет
Forced : Нет
Текст #11
Идентификатор : 16
Формат : UTF-8
Идентификатор кодека : S_TEXT/UTF8
Идентификатор кодека/Информация : UTF-8 Plain Text
Язык : Greek
Default : Нет
Forced : Нет
Текст #12
Идентификатор : 17
Формат : UTF-8
Идентификатор кодека : S_TEXT/UTF8
Идентификатор кодека/Информация : UTF-8 Plain Text
Язык : Portuguese
Default : Нет
Forced : Нет
Текст #13
Идентификатор : 18
Формат : UTF-8
Идентификатор кодека : S_TEXT/UTF8
Идентификатор кодека/Информация : UTF-8 Plain Text
Язык : Spanish
Default : Нет
Forced : Нет
Текст #14
Идентификатор : 19
Формат : UTF-8
Идентификатор кодека : S_TEXT/UTF8
Идентификатор кодека/Информация : UTF-8 Plain Text
Язык : Swedish
Default : Нет
Forced : Нет
Меню
00:00:00.000 : en:Chapter 01
00:08:51.530 : en:Chapter 02
00:12:58.903 : en:Chapter 03
00:16:34.618 : en:Chapter 04
00:20:50.666 : en:Chapter 05
00:25:09.007 : en:Chapter 06
00:33:14.409 : en:Chapter 07
00:38:26.804 : en:Chapter 08
00:43:40.367 : en:Chapter 09
00:50:12.300 : en:Chapter 10
00:55:16.938 : en:Chapter 11
00:57:04.838 : en:Chapter 12
01:07:51.942 : en:Chapter 13
01:12:11.368 : en:Chapter 14
01:16:03.558 : en:Chapter 15
01:22:06.463 : en:Chapter 16
01:28:49.991 : en:Chapter 17
01:32:03.518 : en:Chapter 18
01:33:42.533 : en:Chapter 19
01:40:29.606 : en:Chapter 20
01:43:06.847 : en:Chapter 21
01:49:12.963 : en:Chapter 22
01:54:04.587 : en:Chapter 23
01:56:58.094 : en:Chapter 24
02:10:27.945 : en:Chapter 25
02:12:26.021 : en:Chapter 26
02:13:37.718 : en:Chapter 27
02:17:59.437 : en:Chapter 28
02:20:09.359 : en:Chapter 29
02:22:59.112 : en:Chapter 30
02:33:58.562 : en:Chapter 31
02:39:27.558 : en:Chapter 32
Скриншоты:
         
         
Other forum [Profile] [PM]

Dracula

Longevity: 7 years 6 months

Posts: 11225

Торрент-статистика

Post 02-Jan-2014 15:52 (after 8 months 29 days)

Топик был перенесен из форума Новинки (DVD, HD Video) в форум Зарубежное кино (HD Video)


kogesan
 
Display posts from previous:    
Reply to topic

The time now is: Today 11:06

All times are GMT + 3 Hours



You cannot post new topics in this forum
You cannot reply to topics in this forum
You cannot edit your posts in this forum
You cannot delete your posts in this forum
You cannot vote in polls in this forum
You cannot attach files in this forum
You cannot download files in this forum