Today is a free download without charge Download

Мой парень – псих / Silver Linings Playbook (Дэвид О. Расселл / David O. Russell) [2012, США, драма, мелодрама, комедия, BDRip 720p] MVO + Original Eng + Sub Rus Eng

Reply to topic
 
Author
Message

Omen ®

Longevity: 8 years 5 months

Posts: 181087

Торрент-статистика

Post 02-Apr-2013 17:34

[Quote]

Мой парень – психSilver Linings Playbook
«На каждого психа найдётся своя чокнутая»
-Страна: США
Жанр: драма, мелодрама, комедия
Год выпуска: 2012
Продолжительность: 02:02:05-Перевод: Профессиональный (многоголосый, закадровый) |Многоголосый закадровый, R5|
Перевод 2: Субтитры (отдельным файлом)
Cубтитры: Русские, Английские |English, English (SDH), English (SDH-COLORED)|
Оригинальная аудиодорожка: английский-Режиссер: Дэвид О. Расселл / David O. Russell
В ролях: Брэдли Купер, Дженнифер Лоуренс, Роберт Де Ниро, Джеки Уивер, Крис Такер, Анупам Кхер, Джон Ортиз, Ши Уигхэм, Джулия Стайлз, Пол Херман, Дэш Майок, Мэттью Расселл-Описание: Бывший школьный учитель Пэт, проведя в психиатрической больнице восемь месяцев, возвращается в родительский дом. Он одержим мыслью помириться с бывшей супругой, к которой не имеет права приближаться по решению суда. Но знакомство с эксцентричной девушкой Тиффани зажигает в Пэте луч надежды...-РАЗДАЧА ОТ: - -MPAA: R - Лицам до 17 лет обязательно присутствие взрослого-Формат: MKV
Источник: Silver Linings Playbook 2012 Blu-ray 1080p AVC DTS-HD MA 5.1-HDWinG
Скачать: Сэмпл
Видео: 1280x534 at 23.976 fps, [email protected], ~6.2 Mbps avg
Аудио#1: Russian: 48 kHz, AC3, 3/2 (L,C,R,l,r) + LFE ch, ~448.00 kbps avg |Многоголосый закадровый, R5|
Аудио#2: English: 48 kHz, DTS, 3/2 (L,C,R,l,r) + LFE ch, ~1536.00 kbps avg
Субтитры: Русские, English, English (SDH), English (SDH-COLORED)
Формат субтитров: softsub (SRT)
Чаптеры: Сохранены оригинальные чаптеры с Blu-Ray

Скриншоты

MediaInfo

Формат : MatroskaВерсия формата : Version 2Размер файла : 6,93 ГбайтПродолжительность : 2 ч. 2 м.Общий поток : 8123 Кбит/секНазвание фильма : Silver Linings Playbook (2012) - Release for HDCLUBДата кодирования : UTC 2013-04-02 07:31:13Программа кодирования : mkvmerge v3.4.0 ('Rapunzel') built on May 15 2010 09:38:20Библиотека кодирования : libebml v0.8.0 + libmatroska v0.9.0
ВидеоИдентификатор : 1Формат : AVCФормат/Информация : Advanced Video CodecПрофиль формата : [email protected]Параметр CABAC формата : ДаПараметр ReFrames формата : 12 кадровИдентификатор кодека : V_MPEG4/ISO/AVCПродолжительность : 2 ч. 2 м.Битрейт : 6200 Кбит/секШирина : 1280 пикселейВысота : 534 пикселяСоотношение сторон : 2,40:1Режим частоты кадров : ПостоянныйЧастота кадров : 23,976 кадра/секЦветовое пространство : YUVСубдискретизация насыщенности : 4:2:0Битовая глубина : 8 битТип развёртки : ПрогрессивнаяБит/(Пиксели*Кадры) : 0.378Размер потока : 5,12 Гбайт (74%)Заголовок : Release for HDCLUBБиблиотека кодирования : x264 core 130 r2274+704+40 24c804d tMod+MixAQ [[email protected]:2:0 X86_64]Настройки программы : cabac=1 / ref=12 / deblock=1:-3:-3 / analyse=0x3:0x113 / me=umh / subme=11 / psy=1 / fade_compensate=0.00 / psy_rd=1.10:0.00 / mixed_ref=1 / me_range=32 / chroma_me=1 / trellis=2 / 8x8dct=1 / cqm=0 / deadzone=21,11 / fast_pskip=0 / chroma_qp_offset=-2 / threads=18 / lookahead_threads=3 / sliced_threads=0 / nr=0 / decimate=0 / interlaced=0 / bluray_compat=0 / constrained_intra=0 / fgo=0 / bframes=8 / b_pyramid=2 / b_adapt=2 / b_bias=0 / direct=3 / weightb=1 / open_gop=0 / weightp=2 / keyint=240 / keyint_min=24 / scenecut=40 / intra_refresh=0 / rc_lookahead=240 / rc=2pass / mbtree=1 / bitrate=6200 / ratetol=1.0 / qcomp=0.70 / qpmin=0 / qpmax=69 / qpstep=4 / cplxblur=20.0 / qblur=0.5 / ip_ratio=1.10 / aq=4:0.75 / aq-sensitivity=10.00 / aq-ifactor=1.00 / aq-pfactor=1.00 / aq-bfactor=1.00 / aq2=0Язык : EnglishDefault : НетForced : Нет
Аудио #1Идентификатор : 2Формат : AC-3Формат/Информация : Audio Coding 3Расширение режима : CM (complete main)Параметр Endianness формата : BigИдентификатор кодека : A_AC3Продолжительность : 2 ч. 2 м.Вид битрейта : ПостоянныйБитрейт : 448 Кбит/секКаналы : 6 каналовРасположение каналов : Front: L C R, Side: L R, LFEЧастота : 48,0 КГцБитовая глубина : 16 битМетод сжатия : С потерямиРазмер потока : 391 Мбайт (6%)Заголовок : AC3 5.1 @ 448 kbps - MVO, R5Язык : RussianDefault : ДаForced : Нет
Аудио #2Идентификатор : 3Формат : DTSФормат/Информация : Digital Theater SystemsРежим : 16Параметр Endianness формата : BigИдентификатор кодека : A_DTSПродолжительность : 2 ч. 2 м.Вид битрейта : ПостоянныйБитрейт : 1509 Кбит/секКаналы : 6 каналовРасположение каналов : Front: L C R, Side: L R, LFEЧастота : 48,0 КГцБитовая глубина : 24 битМетод сжатия : С потерямиЗадержка видео : 11 мс.Размер потока : 1,29 Гбайт (19%)Заголовок : DTS 5.1 @ 1536 kbpsЯзык : EnglishDefault : НетForced : Нет
Текст #1Идентификатор : 4Формат : UTF-8Идентификатор кодека : S_TEXT/UTF8Идентификатор кодека/Информация : UTF-8 Plain TextЗаголовок : FullЯзык : EnglishDefault : НетForced : Нет
Текст #2Идентификатор : 5Формат : UTF-8Идентификатор кодека : S_TEXT/UTF8Идентификатор кодека/Информация : UTF-8 Plain TextЗаголовок : SDHЯзык : EnglishDefault : НетForced : Нет
Текст #3Идентификатор : 6Формат : UTF-8Идентификатор кодека : S_TEXT/UTF8Идентификатор кодека/Информация : UTF-8 Plain TextЗаголовок : SDH-ColoredЯзык : EnglishDefault : НетForced : Нет
Меню00:00:00.000 : en:00:00:00.00000:10:18.535 : en:00:10:18.53500:21:11.979 : en:00:21:11.97900:29:25.847 : en:00:29:25.84700:35:20.869 : en:00:35:20.86900:52:22.014 : en:00:52:22.01401:03:47.282 : en:01:03:47.28201:13:18.728 : en:01:13:18.72801:21:50.405 : en:01:21:50.40501:36:58.104 : en:01:36:58.10401:43:52.435 : en:01:43:52.43501:56:08.795 : en:01:56:08.795
Other forum [Profile] [PM]
Display posts from previous:    
Reply to topic

The time now is: Today 01:02

All times are GMT + 3 Hours



You cannot post new topics in this forum
You cannot reply to topics in this forum
You cannot edit your posts in this forum
You cannot delete your posts in this forum
You cannot vote in polls in this forum
You cannot attach files in this forum
You cannot download files in this forum