Today is a free download without charge Download

Epica - Retrospect Live [2013, Symphonic metal, HDTV 720p]

Reply to topic
 
Author
Message

Omen ®

Longevity: 8 years 3 months

Posts: 181087

Торрент-статистика

Post 02-Apr-2013 17:34

[Quote]

Epica - Retrospect Live
Жанр: Symphonic metal
Продолжительность: 3:09:55
Год выпуска: 2013
Описание: On March 23rd, 2013, celebrated their 10th anniversary with a huge live event, called Retrospect, at the Klokgebouw, Eindhoven hosting a live orchestrs from Hungary along with Special guests Floor Jansen, and former Epica members: Ad Sluijter, Jeroen Simons, and Yves Huts. During the show a DVD release of the show was confirmed.
Tracklist:
01 .Intro
02. Monopoly on Truth
03. Sensorium
04. Unleashed (Orchestral Intro from "This … moreIs the Time" Single)
05. Martyr of the Free Word
06. Chasing the Dragon
07. Presto Play Video (Antonio Vivaldi cover)
08. Never Enough
09. Stabat Mater Dolorosa (Giovanni Battista Pergolesi cover) (with Floor Jansen)
10. Twin Flames (Live Premiere)
11. Serenade of Self-Destruction
12. Feint / Fools of Damnation / Mother of Light / Kingdom of Heaven / Run for a Fall / Deep Water Horizon (Orchestral Medley)
13. The Divine Conspiracy
14. Delirium
15. Blank Infinity
16. The Obsessive Devotion
17. Retrospect (Unreleased Song, Live Premiere)
18. Battle of the Heroes / The Imperial March (John Williams cover) (Star Wars Medley)
19. Quietus (With Yves Huts, Jeroen Simons and Ad Sluijter)
20. The Phantom Agony
Encore:
21. Cry for the Moon (Extended Drum Outro)
22. Sancta Terra (with Floor Jansen)
23. Design Your Universe
Encore 2:
24. Storm the Sorrow
25. Consign to Oblivion
Доп. информация: Wikipedia
http://www.epica-retrospect.com
Качество: HDTV 720p
Контейнер: MKV
Видео кодек: H.264
Аудио кодек: AC3
Видео: AVC 1280x720 2318Kbps 50fps 16:9
Аудио: AC3 48KHz 256Kbps 2 ch.

Отчёт MediaInfo / BDInfo

GeneralUnique ID : 185538396910956140156152404245248395859 (0x8B95653BD8CF7A4EA5A43C5F30BACA53)Complete name : \Epica - Retrospect_Live_2013.mkvFormat : MatroskaFormat version : Version 4 / Version 2File size : 3.42 GiBDuration : 3h 9mnOverall bit rate : 2 577 KbpsEncoded date : UTC 2013-03-29 23:10:37Writing application : mkvmerge v6.1.0 ('Old Devil') built on Mar 2 2013 14:32:37Writing library : libebml v1.3.0 + libmatroska v1.4.0
VideoID : 1Format : AVCFormat/Info : Advanced Video CodecFormat profile : [email protected] settings, CABAC : YesFormat settings, ReFrames : 4 framesCodec ID : V_MPEG4/ISO/AVCDuration : 3h 9mnBit rate : 2 318 KbpsWidth : 1 280 pixelsHeight : 720 pixelsDisplay aspect ratio : 16:9Frame rate mode : VariableFrame rate : 25.000 fpsColor space : YUVChroma subsampling : 4:2:0Bit depth : 8 bitsScan type : ProgressiveBits/(Pixel*Frame) : 0.101Stream size : 3.01 GiB (88%)Writing library : x264 core 120Encoding settings : cabac=1 / ref=1 / deblock=1:0:0 / analyse=0x1:0x111 / me=hex / subme=2 / psy=1 / psy_rd=1.00:0.00 / mixed_ref=0 / me_range=16 / chroma_me=1 / trellis=0 / 8x8dct=0 / cqm=0 / deadzone=21,11 / fast_pskip=1 / chroma_qp_offset=0 / threads=3 / sliced_threads=0 / nr=0 / decimate=1 / interlaced=0 / bluray_compat=0 / constrained_intra=0 / bframes=3 / b_pyramid=2 / b_adapt=1 / b_bias=0 / direct=1 / weightb=1 / open_gop=0 / weightp=1 / keyint=250 / keyint_min=25 / scenecut=40 / intra_refresh=0 / rc_lookahead=10 / rc=abr / mbtree=1 / bitrate=2318 / ratetol=1.0 / qcomp=0.60 / qpmin=3 / qpmax=69 / qpstep=4 / ip_ratio=1.40 / aq=1:1.00Language : EnglishDefault : YesForced : NoColor primaries : BT.709-5, BT.1361, IEC 61966-2-4, SMPTE RP177Transfer characteristics : BT.709-5, BT.1361Matrix coefficients : BT.709-5, BT.1361, IEC 61966-2-4 709, SMPTE RP177
AudioID : 2Format : AC-3Format/Info : Audio Coding 3Mode extension : CM (complete main)Format settings, Endianness : BigCodec ID : A_AC3Duration : 3h 9mnBit rate mode : ConstantBit rate : 256 KbpsChannel(s) : 2 channelsChannel positions : Front: L RSampling rate : 48.0 KHzBit depth : 16 bitsCompression mode : LossyStream size : 348 MiB (10%)Language : EnglishDefault : YesForced : No
TextID : 3Format : UTF-8Codec ID : S_TEXT/UTF8Codec ID/Info : UTF-8 Plain TextDefault : YesForced : No
Menu #100:00:00.000 : :Intro00:09:46.560 : :Monopoly Of Truth00:16:55.000 : :Sensorium00:22:53.920 : :Unleashed00:29:29.920 : :Martyr Of The Free World00:35:52.000 : :Chasing The Dragon00:44:32.960 : :Presto (Vivaldi Cover)00:48:34.120 : :Never Enough00:54:05.120 : :Stabat Mater Dolorosa (With Foor Jansen)00:59:46.360 : :Twin Flames01:05:13.800 : :Serenade Of Self Destruction01:14:36.240 : :Feint/Fools Of Damnation/Mother Of Light/Kingdom Of Heaven/Run For A Fall/Deep Water Horizon - Orchestra Cover01:23:45.200 : :The Divine Conspiracy01:31:22.680 : :Delirium01:37:36.480 : :Blank Infinity01:42:34.880 : :The Obsessive Devotion01:50:46.240 : :Retrospect01:55:34.320 : :Battle of The Heroes/The Imperial March02:02:33.400 : :Quietus02:07:00.480 : :The Phantom Agony02:16:35.560 : :Cry To The Moon02:28:37.560 : :Sancta Terra (With Floor Jansen)02:34:46.000 : :Design Your Universe02:49:10.360 : :Storm Of Sorrow02:55:46.640 : :Consign To Oblivion
Menu #200:00:00.000 : en:Chapter 100:09:46.560 : en:Chapter 200:16:55.000 : en:Chapter 300:22:53.960 : en:Chapter 400:29:29.920 : en:Chapter 500:35:52.000 : en:Chapter 600:44:33.040 : en:Chapter 700:48:34.200 : en:Chapter 800:54:05.160 : en:Chapter 900:59:46.400 : en:Chapter 1001:05:13.880 : en:Chapter 1101:14:36.280 : en:Chapter 1201:23:45.240 : en:Chapter 1301:31:22.720 : en:Chapter 1401:37:36.480 : en:Chapter 1501:42:34.960 : en:Chapter 1601:50:46.240 : en:Chapter 1701:55:34.320 : en:Chapter 1802:02:33.440 : en:Chapter 1902:07:00.560 : en:Chapter 2002:16:35.560 : en:Chapter 2102:28:37.600 : en:Chapter 2202:34:46.000 : en:Chapter 2302:49:10.360 : en:Chapter 2402:55:46.640 : en:Chapter 25

Скриншоты

Other forum [Profile] [PM]
Display posts from previous:    
Reply to topic

The time now is: Today 23:57

All times are GMT + 3 Hours



You cannot post new topics in this forum
You cannot reply to topics in this forum
You cannot edit your posts in this forum
You cannot delete your posts in this forum
You cannot vote in polls in this forum
You cannot attach files in this forum
You cannot download files in this forum