Today is a free download without charge Download

Ликвидация / Серии: 1-14 из 14 (Сергей Урсуляк) [2007, Детектив, драма, боевик, DVDRip - AVC]

Reply to topic
 
Author
Message

Omen ®

Longevity: 9 years

Posts: 181086

Торрент-статистика

Post 02-Apr-2013 09:26

[Quote]

Ликвидация- Год выпуска: 2007
Производство: Россия, Централ Партнершип
Жанр: Детектив, драма, боевик
Продолжительность: ~ 00:46:00
Субтитры: нет-Режиссёр: Сергей Урсуляк-В ролях: Владимир Машков, Михаил Пореченков, Владимир Меньшов, Сергей Маковецкий, Светлана Крючкова, Юрий Лахин, Александр Сирин, Константин Лавроненко, Константин Желдин, Полина Агуреева, Лика Нифонтова, Борис Каморзин, Александр Голубев, Федор Добронравов и др.-Описание: Послевоенная Одесса, разгул преступности. В городе орудует банда бывших диверсантов во главе с загадочным Академиком, которого не знают даже свои. Бандиты грабят военные склады и пытаются переправить продовольствие, обмундирование и оружие бандеровцам. В это время недовольный Жуковым Сталин назначает его командующим Одесским округом. Маршал всеми силами пытается навести в городе порядок. На борьбу с бандитами посланы все силы, особенно старается начальник уголовного розыска Давид Гоцман. В ходе расследования выясняется, что и в милиции, и в штабе командования у бандитов свои люди, в частности, сам Академик. Жуков и Гоцман прибегают к разным методам, чтобы выйти на банду. В конце концов Гоцман осуществляет идею внедрить в ряды бандитов своего человека и приманкой вынудить их к решительным действиям, чтобы всех взять и выйти на Академика.-Любая реклама ОТСУТСТВУЕТ!!!-Сэмпл-Качество: DVDRip - AVC [Исходник 4хDVD9]
Формат: MKV
Видео кодек: H.264
Аудио кодек: AC3
Видео: x264, 716 х 460**763 х 460 (16:9), 25,000 кадр/сек, ~ 1732 Кбит/сек, ~ 0.210 bit/pixel
Аудио: AC-3, 48.0 KHz, 6 канала(ов), 448 kbs

MI

Complete name : Ликвидация.02 серия.2007.DVDRip-AVC.Metla111.mkv
Format : Matroska
Format version : Version 2
File size : 699 MiB
Duration : 44mn 50s
Overall bit rate : 2 181 Kbps
Encoded date : UTC 2013-03-31 11:09:18
Writing application : mkvmerge v5.6.0 ('Kenya Kane') built on May 27 2012 16:44:04
Writing library : libebml v1.2.3 + libmatroska v1.3.0
Video
ID : 1
Format : AVC
Format/Info : Advanced Video Codec
Format profile : [email protected]
Format settings, CABAC : Yes
Format settings, ReFrames : 10 frames
Muxing mode : Header stripping
Codec ID : V_MPEG4/ISO/AVC
Duration : 44mn 50s
Bit rate : 1 732 Kbps
Width : 716 pixels
Height : 460 pixels
Display aspect ratio : 1.659
Original display aspect ratio : 1.660
Frame rate mode : Constant
Frame rate : 25.000 fps
Color space : YUV
Chroma subsampling : 4:2:0
Bit depth : 8 bits
Scan type : Progressive
Bits/(Pixel*Frame) : 0.210
Stream size : 542 MiB (77%)
Writing library : x264 core 125 r2208 d9d2288
Encoding settings : cabac=1 / ref=10 / deblock=1:-3:-3 / analyse=0x3:0x113 / me=umh / subme=9 / psy=1 / psy_rd=1.00:0.20 / mixed_ref=1 / me_range=32 / chroma_me=1 / trellis=2 / 8x8dct=1 / cqm=0 / deadzone=21,11 / fast_pskip=0 / chroma_qp_offset=-3 / threads=6 / lookahead_threads=1 / sliced_threads=0 / nr=0 / decimate=0 / interlaced=0 / bluray_compat=0 / constrained_intra=0 / bframes=8 / b_pyramid=2 / b_adapt=2 / b_bias=0 / direct=3 / weightb=1 / open_gop=0 / weightp=2 / keyint=250 / keyint_min=25 / scenecut=40 / intra_refresh=0 / rc=2pass / mbtree=0 / bitrate=1732 / ratetol=1.0 / qcomp=0.70 / qpmin=0 / qpmax=69 / qpstep=4 / cplxblur=20.0 / qblur=0.5 / ip_ratio=1.40 / pb_ratio=1.30 / aq=1:1.00
Language : English
Default : Yes
Forced : No
Color primaries : BT.601 PAL
Transfer characteristics : BT.470 System B, BT.470 System G
Matrix coefficients : BT.601
Audio
ID : 2
Format : AC-3
Format/Info : Audio Coding 3
Mode extension : CM (complete main)
Format settings, Endianness : Big
Muxing mode : Header stripping
Codec ID : A_AC3
Duration : 44mn 50s
Bit rate mode : Constant
Bit rate : 448 Kbps
Channel(s) : 6 channels
Channel positions : Front: L C R, Side: L R, LFE
Sampling rate : 48.0 KHz
Bit depth : 16 bits
Compression mode : Lossy
Stream size : 144 MiB (21%)
Default : Yes
Forced : No

Log - x264

raw [info]: 716x460p 16:15 @ 25/1 fps (cfr)
x264 [info]: using SAR=16/15
x264 [info]: using cpu capabilities: MMX2 SSE2Fast SSSE3 FastShuffle SSE4.2
x264 [info]: profile High, level 3.1
x264 [info]: frame I:528 Avg QP:17.90 size: 56195
x264 [info]: frame P:19651 Avg QP:20.17 size: 17244
x264 [info]: frame B:47083 Avg QP:22.43 size: 4544
x264 [info]: consecutive B-frames: 8.0% 7.0% 16.1% 15.4% 12.9% 37.9% 1.8% 0.4% 0.5%
x264 [info]: mb I I16..4: 8.7% 67.0% 24.3%
x264 [info]: mb P I16..4: 0.3% 9.0% 1.6% P16..4: 40.9% 27.1% 17.8% 0.0% 0.0% skip: 3.4%
x264 [info]: mb B I16..4: 0.0% 0.6% 0.2% B16..8: 42.4% 11.7% 3.2% direct: 5.5% skip:36.5% L0:31.3% L1:45.4% BI:23.4%
x264 [info]: 8x8 transform intra:79.0% inter:50.0%
x264 [info]: direct mvs spatial:98.7% temporal:1.3%
x264 [info]: coded y,uvDC,uvAC intra: 96.6% 38.0% 7.4% inter: 28.6% 6.8% 0.6%
x264 [info]: i16 v,h,dc,p: 15% 11% 37% 36%
x264 [info]: i8 v,h,dc,ddl,ddr,vr,hd,vl,hu: 14% 10% 9% 8% 12% 12% 11% 12% 12%
x264 [info]: i4 v,h,dc,ddl,ddr,vr,hd,vl,hu: 14% 9% 4% 9% 14% 14% 13% 11% 12%
x264 [info]: i8c dc,h,v,p: 44% 29% 19% 8%
x264 [info]: Weighted P-Frames: Y:5.2% UV:1.8%
x264 [info]: ref P L0: 52.3% 12.6% 14.0% 4.7% 4.6% 3.3% 3.0% 1.6% 1.6% 1.5% 0.7% 0.0%
x264 [info]: ref B L0: 86.3% 7.3% 2.3% 1.3% 0.9% 0.8% 0.6% 0.4% 0.2%
x264 [info]: ref B L1: 96.9% 3.1%
x264 [info]: kb/s:1731.93

Скриншоты

FAQ по просмотру MKV/h.264/AAC

-
Other forum [Profile] [PM]
Display posts from previous:    
Reply to topic

The time now is: Today 16:47

All times are GMT + 3 Hours



You cannot post new topics in this forum
You cannot reply to topics in this forum
You cannot edit your posts in this forum
You cannot delete your posts in this forum
You cannot vote in polls in this forum
You cannot attach files in this forum
You cannot download files in this forum