Today is a free download without charge Download

Три товарища / Сезон: 1 / Серии: 4 из 4 (Тигран Кеосаян) [2012, драма, SATRip]

Reply to topic
 
Author
Message

Omen ®

Longevity: 9 years 1 month

Posts: 181086

Торрент-статистика

Post 02-Apr-2013 09:26

[Quote]

Три товарища
Год выпуска: 2012
Производство: Россия, Марс Медиа Энтертеймен
Жанр: драма
Продолжительность: ~ 00:45:00
Субтитры: нет
Режиссёр: Тигран Кеосаян
В ролях: Надежда Михалкова, Евгений Пронин, Алексей Серебряков, Евгений Миллер, Андрей Калинин, Лариса Гузеева, Людмила Долгорукова, Игорь Ясулович, Александр Коршунов, Сергей Никоненко, Роман Мадянов, Александра Березовец-Скачкова, Анастасия Сметанина, Владимир Капустин, Сергей Фролов, Сергей Мурзин, Александр Чевычелов, Артём Федотов, Андрис Лиелайс
Описание: Новое прочтение знаменитого романа Ремарка. Действие из Германии 1920-х перенесено в Россию 2010-х. Вместо автомобиля – самолет, вместо фашиствующих молодчиков – подручные коррумпированных депутатов, вместо чахотки – рак. Но дружба и любовь остаются превыше всего во все времена…
Сэмпл: Сэмпл
Качество: SATRip
Формат: AVI
Видео кодек: DivX
Аудио кодек: MP3
Видео: 704x368 (1.91:1), 25 fps, DivX Codec 5.x or 6.x ~1499 kbps avg, 0.23 bit/pixel
Аудио: 48 kHz, MPEG Layer 3, 2 ch, ~128.00 kbps avg

MI

General
Complete name : J:\Films\Tri.tovarischa\Tri.tovarischa.(3.seriya.iz.4).2012.SATRip.avi
Format : AVI
Format/Info : Audio Video Interleave
File size : 517 MiB
Duration : 44mn 7s
Overall bit rate : 1 637 Kbps
Writing application : VirtualDubMod 1.5.10.2 (build 2540/release)
Writing library : VirtualDub build 29808/release
Video
ID : 0
Format : MPEG-4 Visual
Format settings, BVOP : Yes
Format settings, QPel : No
Format settings, GMC : No warppoints
Format settings, Matrix : Default (H.263)
Muxing mode : Packed bitstream
Codec ID : DX50
Codec ID/Hint : DivX 5
Duration : 44mn 7s
Bit rate : 1 499 Kbps
Width : 704 pixels
Height : 368 pixels
Display aspect ratio : 1.913
Frame rate : 25.000 fps
Resolution : 8 bits
Colorimetry : 4:2:0
Scan type : Progressive
Bits/(Pixel*Frame) : 0.232
Stream size : 473 MiB (92%)
Writing library : DivX 6.8.5 (UTC 2009-08-20)
Audio
ID : 1
Format : MPEG Audio
Format version : Version 1
Format profile : Layer 3
Mode : Joint stereo
Codec ID : 55
Codec ID/Hint : MP3
Duration : 44mn 7s
Bit rate mode : Constant
Bit rate : 128 Kbps
Channel(s) : 2 channels
Sampling rate : 48.0 KHz
Stream size : 40.4 MiB (8%)
Alignment : Aligned on interleaves
Interleave, duration : 40 ms (1.00 video frame)
Interleave, preload duration : 504 ms
Writing library : LAME3.90.3

Скриншоты

Реклама вырезана
Other forum [Profile] [PM]
Display posts from previous:    
Reply to topic

The time now is: Today 23:42

All times are GMT + 3 Hours



You cannot post new topics in this forum
You cannot reply to topics in this forum
You cannot edit your posts in this forum
You cannot delete your posts in this forum
You cannot vote in polls in this forum
You cannot attach files in this forum
You cannot download files in this forum