Today is a free download without charge Download

Любовный переплет / The Oranges (Джулиан Фарино / Julian Farino) [2011, США, драма, мелодрама, комедия, Blu-ray 1080p] Dub + Sub Rus + Original Eng

Reply to topic
 
Author
Message

Omen ®

Longevity: 8 years 5 months

Posts: 181087

Торрент-статистика

Post 02-Apr-2013 09:26

[Quote]

Любовный переплет / The Oranges
«Интриги и скандалы - всё как обычно»
Страна: США
Жанр: драма, мелодрама, комедия
Год выпуска: 2011
Продолжительность: 01:30:36
Перевод: Профессиональный (дублированный)
Cубтитры: русские
Оригинальная аудиодорожка: английский
Режиссер: Джулиан Фарино / Julian Farino
В ролях: Хью Лори, Кэтрин Кинер, Оливер Платт, Эллисон Дженни, Алиа Шокат, Адам Броди, Лейтон Мистер, Бойд Холбрук, Тим Гини, Лукас Папаэлиас
Описание: Семьи Острофф и Уоллинг дружат между собой и живут по соседству, на Орандж Драйв, как раз напротив. Дочь-транжирка, Нина Острофф, возвращается домой на День Благодарения, после пятилетнего отсутствия, недавно порвав с женихом. Вместо того, чтобы заинтересоваться успешным сыном своих соседей, Тоби Уоллингом, что устроило бы обе семьи, она обращает внимание на его отца и лучшего друга своих родителей, Дэвида Уоллинга. Когда романтические отношения между Ниной и Дэвидом становится невозможно игнорировать, жизнь обеих семей приходит в полный беспорядок.
Сэмпл:
Релиз:
Тип релиза: Blu-ray BD-25 Single-Layer Disc
Видео: MPEG-2 Video / 1080p / 23,976 fps / 16:9 / 27274 kbps
Аудио: Russian / DTS Audio / 5.1 / 48 kHz / 768 kbps / 16-bit |Дубляж|
Аудио 2: English / DTS Audio / 5.1 / 48 kHz / 768 kbps / 16-bit |Оригинал|
Формат субтитров: PGS
Дополнительно на диске: анонсы

BDInfo

Disc Title: ORANGES_HDCLUB
Disc Size: 23 584 798 720 bytes
Protection: AACS
BD-Java: No
Extras: 50Hz Content
BDInfo: 0.5.8
Notes:
BDINFO HOME:
Cinema Squid
http://www.cinemasquid.com/blu-ray/tools/bdinfo
INCLUDES FORUMS REPORT FOR:
AVS Forum Blu-ray Audio and Video Specifications Thread
http://www.avsforum.com/avs-vb/showthread.php?t=1155731
********************
PLAYLIST: 00013.MPLS
********************
Код:
Total   Video
Title                                                           Codec   Length  Movie Size      Disc Size       Bitrate Bitrate Main Audio Track                          Secondary Audio Track
-----                                                           ------  ------- --------------  --------------  ------- ------- ------------------                        ---------------------
00013.MPLS                                                      MPEG-2  1:30:36 20 584 519 680  23 584 798 720  30,29   27,27   DTS 5.1 768Kbps (48kHz/16-bit)
Код:
DISC INFO:
Disc Title:     ORANGES_HDCLUB
Disc Size:      23 584 798 720 bytes
Protection:     AACS
BD-Java:        No
Extras:         50Hz Content
BDInfo:         0.5.8
PLAYLIST REPORT:
Name:                   00013.MPLS
Length:                 1:30:36.139 (h:m:s.ms)
Size:                   20 584 519 680 bytes
Total Bitrate:          30,29 Mbps
VIDEO:
Codec                   Bitrate             Description
-----                   -------             -----------
MPEG-2 Video            27274 kbps          1080p / 23,976 fps / 16:9
AUDIO:
Codec                           Language        Bitrate         Description
-----                           --------        -------         -----------
DTS Audio                       Russian         768 kbps        5.1 / 48 kHz / 768 kbps / 16-bit
DTS Audio                       English         768 kbps        5.1 / 48 kHz / 768 kbps / 16-bit
SUBTITLES:
Codec                           Language        Bitrate         Description
-----                           --------        -------         -----------
Presentation Graphics           Russian         28,524 kbps
FILES:
Name            Time In         Length          Size            Total Bitrate
----            -------         ------          ----            -------------
00026.M2TS      0:00:00.000     1:30:36.139     20 584 519 680  30 293
CHAPTERS:
Number          Time In         Length          Avg Video Rate  Max 1-Sec Rate  Max 1-Sec Time  Max 5-Sec Rate  Max 5-Sec Time  Max 10Sec Rate  Max 10Sec Time  Avg Frame Size  Max Frame Size  Max Frame Time
------          -------         ------          --------------  --------------  --------------  --------------  --------------  --------------  --------------  --------------  --------------  --------------
1               0:00:00.000     0:00:56.890     17 840 kbps     35 024 kbps     00:00:09.551    29 831 kbps     00:00:46.546    29 136 kbps     00:00:38.663    92 941 bytes    672 898 bytes   00:00:56.848
2               0:00:56.890     0:04:20.885     28 578 kbps     35 833 kbps     00:01:13.573    30 563 kbps     00:04:02.367    29 931 kbps     00:02:15.009    148 991 bytes   919 732 bytes   00:01:05.356
3               0:05:17.775     0:05:04.053     28 629 kbps     35 626 kbps     00:10:10.985    30 447 kbps     00:09:15.054    29 993 kbps     00:08:25.254    149 260 bytes   822 613 bytes   00:07:09.846
4               0:10:21.829     0:08:53.616     28 349 kbps     35 179 kbps     00:11:59.760    30 611 kbps     00:18:56.176    30 022 kbps     00:12:06.976    147 799 bytes   911 176 bytes   00:12:07.017
5               0:19:15.445     0:11:25.059     27 971 kbps     35 120 kbps     00:29:57.170    30 819 kbps     00:20:15.214    30 196 kbps     00:28:05.308    145 829 bytes   788 849 bytes   00:27:09.669
6               0:30:40.505     0:09:58.139     28 056 kbps     35 828 kbps     00:39:55.267    30 698 kbps     00:33:39.308    30 068 kbps     00:35:48.271    146 272 bytes   893 179 bytes   00:34:10.715
7               0:40:38.644     0:18:51.130     28 004 kbps     34 709 kbps     00:47:00.526    30 679 kbps     00:46:56.480    30 202 kbps     00:44:36.340    146 002 bytes   907 335 bytes   00:47:59.543
8               0:59:29.774     0:13:05.117     27 979 kbps     36 100 kbps     01:02:28.745    30 531 kbps     01:04:55.057    30 038 kbps     01:09:19.947    145 872 bytes   924 472 bytes   01:05:34.472
9               1:12:34.892     0:18:01.246     24 393 kbps     35 084 kbps     01:19:18.128    30 933 kbps     01:14:44.104    29 997 kbps     01:15:54.800    127 180 bytes   884 069 bytes   01:14:23.625
STREAM DIAGNOSTICS:
File            PID             Type            Codec           Language                Seconds                 Bitrate                 Bytes           Packets
----            ---             ----            -----           --------                --------------          --------------          -------------   -----
00026.M2TS      4113 (0x1011)   0x02            MPEG-2                                  5436,056                27 274                  18 533 104 950  100 799 172
00026.M2TS      4352 (0x1100)   0x82            DTS             rus (Russian)           5436,056                755                     512 695 828     3 057 828
00026.M2TS      4353 (0x1101)   0x82            DTS             eng (English)           5436,056                755                     512 695 828     3 057 828
00026.M2TS      4608 (0x1200)   0x90            PGS             rus (Russian)           5436,056                29                      19 382 449      114 085
QUICK SUMMARY:
Disc Title: ORANGES_HDCLUB
Disc Size: 23 584 798 720 bytes
Protection: AACS
BD-Java: No
Playlist: 00013.MPLS
Size: 20 584 519 680 bytes
Length: 1:30:36.139
Total Bitrate: 30,29 Mbps
Video: MPEG-2 Video / 27274 kbps / 1080p / 23,976 fps / 16:9
Audio: Russian / DTS Audio / 5.1 / 48 kHz / 768 kbps / 16-bit
Audio: English / DTS Audio / 5.1 / 48 kHz / 768 kbps / 16-bit
Subtitle: Russian / 28,524 kbps
********************
PLAYLIST: 00012.MPLS
********************
Код:
Total   Video
Title                                                           Codec   Length  Movie Size      Disc Size       Bitrate Bitrate Main Audio Track                          Secondary Audio Track
-----                                                           ------  ------- --------------  --------------  ------- ------- ------------------                        ---------------------
00012.MPLS                                                      AVC     0:02:23 382 208 448     23 584 798 720  21,36   19,98   DD AC3 2.0 384Kbps
Код:
DISC INFO:
Disc Title:     ORANGES_HDCLUB
Disc Size:      23 584 798 720 bytes
Protection:     AACS
BD-Java:        No
Extras:         50Hz Content
BDInfo:         0.5.8
PLAYLIST REPORT:
Name:                   00012.MPLS
Length:                 0:02:23.166 (h:m:s.ms)
Size:                   382 208 448 bytes
Total Bitrate:          21,36 Mbps
VIDEO:
Codec                   Bitrate             Description
-----                   -------             -----------
MPEG-4 AVC Video        19984 kbps          1080p / 24 fps / 16:9 / High Profile 4.1
AUDIO:
Codec                           Language        Bitrate         Description
-----                           --------        -------         -----------
Dolby Digital Audio             Russian         384 kbps        2.0 / 48 kHz / 384 kbps / DN -4dB
FILES:
Name            Time In         Length          Size            Total Bitrate
----            -------         ------          ----            -------------
00024.M2TS      0:00:00.000     0:02:23.125     382 205 952     21 363
00025.M2TS      0:02:23.125     0:00:00.041     2 496           479
CHAPTERS:
Number          Time In         Length          Avg Video Rate  Max 1-Sec Rate  Max 1-Sec Time  Max 5-Sec Rate  Max 5-Sec Time  Max 10Sec Rate  Max 10Sec Time  Avg Frame Size  Max Frame Size  Max Frame Time
------          -------         ------          --------------  --------------  --------------  --------------  --------------  --------------  --------------  --------------  --------------  --------------
1               0:00:00.000     0:00:00.375     7 266 kbps      0 kbps          00:00:00.000    0 kbps          00:00:00.000    0 kbps          00:00:00.000    34 061 bytes    108 443 bytes   00:00:00.291
2               0:00:00.375     0:02:22.791     20 017 kbps     53 759 kbps     00:00:10.958    28 807 kbps     00:02:03.791    25 902 kbps     00:01:58.708    104 286 bytes   641 355 bytes   00:01:54.625
STREAM DIAGNOSTICS:
File            PID             Type            Codec           Language                Seconds                 Bitrate                 Bytes           Packets
----            ---             ----            -----           --------                --------------          --------------          -------------   -----
00024.M2TS      4113 (0x1011)   0x1B            AVC                                     142,958                 20 013                  357 620 703     1 945 590
00024.M2TS      4352 (0x1100)   0x81            AC3             rus (Russian)           142,958                 384                     6 868 992       40 248
00025.M2TS      4113 (0x1011)   0x1B            AVC                                     0                       0                       4 858           28
QUICK SUMMARY:
Disc Title: ORANGES_HDCLUB
Disc Size: 23 584 798 720 bytes
Protection: AACS
BD-Java: No
Playlist: 00012.MPLS
Size: 382 208 448 bytes
Length: 0:02:23.166
Total Bitrate: 21,36 Mbps
Video: MPEG-4 AVC Video / 19984 kbps / 1080p / 24 fps / 16:9 / High Profile 4.1
Audio: Russian / Dolby Digital Audio / 2.0 / 48 kHz / 384 kbps / DN -4dB
********************
PLAYLIST: 00009.MPLS
********************
Код:
Total   Video
Title                                                           Codec   Length  Movie Size      Disc Size       Bitrate Bitrate Main Audio Track                          Secondary Audio Track
-----                                                           ------  ------- --------------  --------------  ------- ------- ------------------                        ---------------------
00009.MPLS                                                      AVC     0:02:15 261 355 968     23 584 798 720  15,48   14,32   DD AC3 2.0 384Kbps
Код:
DISC INFO:
Disc Title:     ORANGES_HDCLUB
Disc Size:      23 584 798 720 bytes
Protection:     AACS
BD-Java:        No
Extras:         50Hz Content
BDInfo:         0.5.8
PLAYLIST REPORT:
Name:                   00009.MPLS
Length:                 0:02:15.068 (h:m:s.ms)
Size:                   261 355 968 bytes
Total Bitrate:          15,48 Mbps
VIDEO:
Codec                   Bitrate             Description
-----                   -------             -----------
MPEG-4 AVC Video        14321 kbps          1080i / 29,970 fps / 16:9 / High Profile 4.1
AUDIO:
Codec                           Language        Bitrate         Description
-----                           --------        -------         -----------
Dolby Digital Audio             Russian         384 kbps        2.0 / 48 kHz / 384 kbps / DN -4dB
FILES:
Name            Time In         Length          Size            Total Bitrate
----            -------         ------          ----            -------------
00018.M2TS      0:00:00.000     0:02:15.034     261 353 472     15 484
00019.M2TS      0:02:15.034     0:00:00.033     2 496           598
CHAPTERS:
Number          Time In         Length          Avg Video Rate  Max 1-Sec Rate  Max 1-Sec Time  Max 5-Sec Rate  Max 5-Sec Time  Max 10Sec Rate  Max 10Sec Time  Avg Frame Size  Max Frame Size  Max Frame Time
------          -------         ------          --------------  --------------  --------------  --------------  --------------  --------------  --------------  --------------  --------------  --------------
1               0:00:00.000     0:00:00.400     119 kbps        0 kbps          00:00:00.000    0 kbps          00:00:00.000    0 kbps          00:00:00.000    459 bytes       1 482 bytes     00:00:00.000
2               0:00:00.400     0:02:14.667     14 363 kbps     50 178 kbps     00:01:58.852    27 727 kbps     00:00:02.168    21 394 kbps     00:00:01.267    59 920 bytes    396 917 bytes   00:00:05.572
STREAM DIAGNOSTICS:
File            PID             Type            Codec           Language                Seconds                 Bitrate                 Bytes           Packets
----            ---             ----            -----           --------                --------------          --------------          -------------   -----
00018.M2TS      4113 (0x1011)   0x1B            AVC                                     134,968                 14 331                  241 780 506     1 318 687
00018.M2TS      4352 (0x1100)   0x81            AC3             rus (Russian)           134,968                 384                     6 480 384       37 971
00019.M2TS      4113 (0x1011)   0x1B            AVC                                     0                       0                       4 812           28
QUICK SUMMARY:
Disc Title: ORANGES_HDCLUB
Disc Size: 23 584 798 720 bytes
Protection: AACS
BD-Java: No
Playlist: 00009.MPLS
Size: 261 355 968 bytes
Length: 0:02:15.068
Total Bitrate: 15,48 Mbps
Video: MPEG-4 AVC Video / 14321 kbps / 1080i / 29,970 fps / 16:9 / High Profile 4.1
Audio: Russian / Dolby Digital Audio / 2.0 / 48 kHz / 384 kbps / DN -4dB
********************
PLAYLIST: 00010.MPLS
********************
Код:
Total   Video
Title                                                           Codec   Length  Movie Size      Disc Size       Bitrate Bitrate Main Audio Track                          Secondary Audio Track
-----                                                           ------  ------- --------------  --------------  ------- ------- ------------------                        ---------------------
00010.MPLS                                                      AVC     0:02:05 307 552 704     23 584 798 720  19,65   18,35   DD AC3 2.0 384Kbps
Код:
DISC INFO:
Disc Title:     ORANGES_HDCLUB
Disc Size:      23 584 798 720 bytes
Protection:     AACS
BD-Java:        No
Extras:         50Hz Content
BDInfo:         0.5.8
PLAYLIST REPORT:
Name:                   00010.MPLS
Length:                 0:02:05.208 (h:m:s.ms)
Size:                   307 552 704 bytes
Total Bitrate:          19,65 Mbps
VIDEO:
Codec                   Bitrate             Description
-----                   -------             -----------
MPEG-4 AVC Video        18348 kbps          1080p / 23,976 fps / 16:9 / High Profile 4.1
AUDIO:
Codec                           Language        Bitrate         Description
-----                           --------        -------         -----------
Dolby Digital Audio             Russian         384 kbps        2.0 / 48 kHz / 384 kbps / DN -4dB
FILES:
Name            Time In         Length          Size            Total Bitrate
----            -------         ------          ----            -------------
00020.M2TS      0:00:00.000     0:02:05.166     307 550 208     19 657
00021.M2TS      0:02:05.166     0:00:00.041     2 496           479
CHAPTERS:
Number          Time In         Length          Avg Video Rate  Max 1-Sec Rate  Max 1-Sec Time  Max 5-Sec Rate  Max 5-Sec Time  Max 10Sec Rate  Max 10Sec Time  Avg Frame Size  Max Frame Size  Max Frame Time
------          -------         ------          --------------  --------------  --------------  --------------  --------------  --------------  --------------  --------------  --------------  --------------
1               0:00:00.000     0:00:00.417     12 611 kbps     0 kbps          00:00:00.000    0 kbps          00:00:00.000    0 kbps          00:00:00.000    59 769 bytes    160 553 bytes   00:00:00.291
2               0:00:00.417     0:02:04.791     18 367 kbps     53 624 kbps     00:00:08.717    30 014 kbps     00:01:26.669    25 153 kbps     00:01:21.831    95 790 bytes    811 228 bytes   00:01:30.882
STREAM DIAGNOSTICS:
File            PID             Type            Codec           Language                Seconds                 Bitrate                 Bytes           Packets
----            ---             ----            -----           --------                --------------          --------------          -------------   -----
00020.M2TS      4113 (0x1011)   0x1B            AVC                                     125,083                 18 366                  287 162 026     1 562 395
00020.M2TS      4352 (0x1100)   0x81            AC3             rus (Russian)           125,083                 384                     6 007 296       35 199
00021.M2TS      4113 (0x1011)   0x1B            AVC                                     0                       0                       4 888           28
QUICK SUMMARY:
Disc Title: ORANGES_HDCLUB
Disc Size: 23 584 798 720 bytes
Protection: AACS
BD-Java: No
Playlist: 00010.MPLS
Size: 307 552 704 bytes
Length: 0:02:05.208
Total Bitrate: 19,65 Mbps
Video: MPEG-4 AVC Video / 18348 kbps / 1080p / 23,976 fps / 16:9 / High Profile 4.1
Audio: Russian / Dolby Digital Audio / 2.0 / 48 kHz / 384 kbps / DN -4dB
********************
PLAYLIST: 00007.MPLS
********************
Код:
Total   Video
Title                                                           Codec   Length  Movie Size      Disc Size       Bitrate Bitrate Main Audio Track                          Secondary Audio Track
-----                                                           ------  ------- --------------  --------------  ------- ------- ------------------                        ---------------------
00007.MPLS                                                      AVC     0:02:04 363 063 744     23 584 798 720  23,28   21,83   DD AC3 2.0 384Kbps
Код:
DISC INFO:
Disc Title:     ORANGES_HDCLUB
Disc Size:      23 584 798 720 bytes
Protection:     AACS
BD-Java:        No
Extras:         50Hz Content
BDInfo:         0.5.8
PLAYLIST REPORT:
Name:                   00007.MPLS
Length:                 0:02:04.750 (h:m:s.ms)
Size:                   363 063 744 bytes
Total Bitrate:          23,28 Mbps
VIDEO:
Codec                   Bitrate             Description
-----                   -------             -----------
MPEG-4 AVC Video        21827 kbps          1080p / 24 fps / 16:9 / High Profile 4.1
AUDIO:
Codec                           Language        Bitrate         Description
-----                           --------        -------         -----------
Dolby Digital Audio             Russian         384 kbps        2.0 / 48 kHz / 384 kbps / DN -4dB
FILES:
Name            Time In         Length          Size            Total Bitrate
----            -------         ------          ----            -------------
00014.M2TS      0:00:00.000     0:02:04.708     363 055 104     23 290
00015.M2TS      0:02:04.708     0:00:00.041     8 640           1 659
CHAPTERS:
Number          Time In         Length          Avg Video Rate  Max 1-Sec Rate  Max 1-Sec Time  Max 5-Sec Rate  Max 5-Sec Time  Max 10Sec Rate  Max 10Sec Time  Avg Frame Size  Max Frame Size  Max Frame Time
------          -------         ------          --------------  --------------  --------------  --------------  --------------  --------------  --------------  --------------  --------------  --------------
1               0:00:00.000     0:00:00.375     29 721 kbps     0 kbps          00:00:00.000    0 kbps          00:00:00.000    0 kbps          00:00:00.000    139 316 bytes   229 573 bytes   00:00:00.208
2               0:00:00.375     0:02:04.375     21 804 kbps     45 928 kbps     00:00:36.999    31 740 kbps     00:00:36.000    28 038 kbps     00:00:35.583    113 598 bytes   735 151 bytes   00:00:37.125
STREAM DIAGNOSTICS:
File            PID             Type            Codec           Language                Seconds                 Bitrate                 Bytes           Packets
----            ---             ----            -----           --------                --------------          --------------          -------------   -----
00014.M2TS      4113 (0x1011)   0x1B            AVC                                     124,583                 21 856                  340 368 401     1 851 608
00014.M2TS      4352 (0x1100)   0x81            AC3             rus (Russian)           124,583                 384                     5 987 328       35 082
00015.M2TS      4113 (0x1011)   0x1B            AVC                                     0                       0                       4 858           28
00015.M2TS      4352 (0x1100)   0x81            AC3             rus (Russian)           0                       0                       1 536           9
QUICK SUMMARY:
Disc Title: ORANGES_HDCLUB
Disc Size: 23 584 798 720 bytes
Protection: AACS
BD-Java: No
Playlist: 00007.MPLS
Size: 363 063 744 bytes
Length: 0:02:04.750
Total Bitrate: 23,28 Mbps
Video: MPEG-4 AVC Video / 21827 kbps / 1080p / 24 fps / 16:9 / High Profile 4.1
Audio: Russian / Dolby Digital Audio / 2.0 / 48 kHz / 384 kbps / DN -4dB
********************
PLAYLIST: 00008.MPLS
********************
Код:
Total   Video
Title                                                           Codec   Length  Movie Size      Disc Size       Bitrate Bitrate Main Audio Track                          Secondary Audio Track
-----                                                           ------  ------- --------------  --------------  ------- ------- ------------------                        ---------------------
00008.MPLS                                                      MPEG-2  0:01:50 317 859 840     23 584 798 720  22,98   21,53   DD AC3 2.0 384Kbps
Код:
DISC INFO:
Disc Title:     ORANGES_HDCLUB
Disc Size:      23 584 798 720 bytes
Protection:     AACS
BD-Java:        No
Extras:         50Hz Content
BDInfo:         0.5.8
PLAYLIST REPORT:
Name:                   00008.MPLS
Length:                 0:01:50.679 (h:m:s.ms)
Size:                   317 859 840 bytes
Total Bitrate:          22,98 Mbps
VIDEO:
Codec                   Bitrate             Description
-----                   -------             -----------
MPEG-2 Video            21533 kbps          1080i / 25 fps / 16:9
AUDIO:
Codec                           Language        Bitrate         Description
-----                           --------        -------         -----------
Dolby Digital Audio             Russian         384 kbps        2.0 / 48 kHz / 384 kbps / DN -4dB
FILES:
Name            Time In         Length          Size            Total Bitrate
----            -------         ------          ----            -------------
00016.M2TS      0:00:00.000     0:01:50.519     317 736 960     22 999
00017.M2TS      0:01:50.519     0:00:00.159     122 880         6 144
CHAPTERS:
Number          Time In         Length          Avg Video Rate  Max 1-Sec Rate  Max 1-Sec Time  Max 5-Sec Rate  Max 5-Sec Time  Max 10Sec Rate  Max 10Sec Time  Avg Frame Size  Max Frame Size  Max Frame Time
------          -------         ------          --------------  --------------  --------------  --------------  --------------  --------------  --------------  --------------  --------------  --------------
1               0:00:00.000     0:00:00.360     5 291 kbps      0 kbps          00:00:00.000    0 kbps          00:00:00.000    0 kbps          00:00:00.000    23 810 bytes    62 948 bytes    00:00:00.159
2               0:00:00.360     0:01:50.319     21 586 kbps     30 954 kbps     00:00:03.240    24 893 kbps     00:01:28.559    24 392 kbps     00:00:54.840    107 971 bytes   775 882 bytes   00:01:35.799
STREAM DIAGNOSTICS:
File            PID             Type            Codec           Language                Seconds                 Bitrate                 Bytes           Packets
----            ---             ----            -----           --------                --------------          --------------          -------------   -----
00016.M2TS      4113 (0x1011)   0x02            MPEG-2                                  110,400                 21 580                  297 799 184     1 620 075
00016.M2TS      4352 (0x1100)   0x81            AC3             rus (Russian)           110,400                 384                     5 303 808       31 077
00017.M2TS      4113 (0x1011)   0x02            MPEG-2                                  0,080                   11 465                  114 648         626
QUICK SUMMARY:
Disc Title: ORANGES_HDCLUB
Disc Size: 23 584 798 720 bytes
Protection: AACS
BD-Java: No
Playlist: 00008.MPLS
Size: 317 859 840 bytes
Length: 0:01:50.679
Total Bitrate: 22,98 Mbps
Video: MPEG-2 Video / 21533 kbps / 1080i / 25 fps / 16:9
Audio: Russian / Dolby Digital Audio / 2.0 / 48 kHz / 384 kbps / DN -4dB
********************
PLAYLIST: 00011.MPLS
********************
Код:
Total   Video
Title                                                           Codec   Length  Movie Size      Disc Size       Bitrate Bitrate Main Audio Track                          Secondary Audio Track
-----                                                           ------  ------- --------------  --------------  ------- ------- ------------------                        ---------------------
00011.MPLS                                                      AVC     0:01:33 289 507 776     23 584 798 720  24,66   23,14   DD AC3 2.0 384Kbps
Код:
DISC INFO:
Disc Title:     ORANGES_HDCLUB
Disc Size:      23 584 798 720 bytes
Protection:     AACS
BD-Java:        No
Extras:         50Hz Content
BDInfo:         0.5.8
PLAYLIST REPORT:
Name:                   00011.MPLS
Length:                 0:01:33.916 (h:m:s.ms)
Size:                   289 507 776 bytes
Total Bitrate:          24,66 Mbps
VIDEO:
Codec                   Bitrate             Description
-----                   -------             -----------
MPEG-4 AVC Video        23143 kbps          1080p / 24 fps / 16:9 / High Profile 4.1
AUDIO:
Codec                           Language        Bitrate         Description
-----                           --------        -------         -----------
Dolby Digital Audio             Russian         384 kbps        2.0 / 48 kHz / 384 kbps / DN -4dB
FILES:
Name            Time In         Length          Size            Total Bitrate
----            -------         ------          ----            -------------
00022.M2TS      0:00:00.000     0:01:33.875     289 468 416     24 668
00023.M2TS      0:01:33.875     0:00:00.041     39 360          7 557
CHAPTERS:
Number          Time In         Length          Avg Video Rate  Max 1-Sec Rate  Max 1-Sec Time  Max 5-Sec Rate  Max 5-Sec Time  Max 10Sec Rate  Max 10Sec Time  Avg Frame Size  Max Frame Size  Max Frame Time
------          -------         ------          --------------  --------------  --------------  --------------  --------------  --------------  --------------  --------------  --------------  --------------
1               0:00:00.000     0:00:00.500     1 128 kbps      0 kbps          00:00:00.000    0 kbps          00:00:00.000    0 kbps          00:00:00.000    5 421 bytes     64 472 bytes    00:00:00.416
2               0:00:00.500     0:01:33.416     23 261 kbps     42 001 kbps     00:00:20.249    31 507 kbps     00:00:15.541    29 765 kbps     00:00:11.333    121 206 bytes   615 323 bytes   00:00:20.500
STREAM DIAGNOSTICS:
File            PID             Type            Codec           Language                Seconds                 Bitrate                 Bytes           Packets
----            ---             ----            -----           --------                --------------          --------------          -------------   -----
00022.M2TS      4113 (0x1011)   0x1B            AVC                                     93,750                  23 184                  271 691 125     1 477 892
00022.M2TS      4352 (0x1100)   0x81            AC3             rus (Russian)           93,750                  387                     4 531 200       26 550
00023.M2TS      4113 (0x1011)   0x1B            AVC                                     0                       0                       4 858           28
00023.M2TS      4352 (0x1100)   0x81            AC3             rus (Russian)           0                       0                       24 576          144
QUICK SUMMARY:
Disc Title: ORANGES_HDCLUB
Disc Size: 23 584 798 720 bytes
Protection: AACS
BD-Java: No
Playlist: 00011.MPLS
Size: 289 507 776 bytes
Length: 0:01:33.916
Total Bitrate: 24,66 Mbps
Video: MPEG-4 AVC Video / 23143 kbps / 1080p / 24 fps / 16:9 / High Profile 4.1
Audio: Russian / Dolby Digital Audio / 2.0 / 48 kHz / 384 kbps / DN -4dB
********************
PLAYLIST: 00015.MPLS
********************
Код:
Total   Video
Title                                                           Codec   Length  Movie Size      Disc Size       Bitrate Bitrate Main Audio Track                          Secondary Audio Track
-----                                                           ------  ------- --------------  --------------  ------- ------- ------------------                        ---------------------
00015.MPLS                                                      MPEG-2  0:00:39 122 836 992     23 584 798 720  25,07   23,71   DD AC3 2.0 192Kbps
Код:
DISC INFO:
Disc Title:     ORANGES_HDCLUB
Disc Size:      23 584 798 720 bytes
Protection:     AACS
BD-Java:        No
Extras:         50Hz Content
BDInfo:         0.5.8
PLAYLIST REPORT:
Name:                   00015.MPLS
Length:                 0:00:39.205 (h:m:s.ms)
Size:                   122 836 992 bytes
Total Bitrate:          25,07 Mbps
VIDEO:
Codec                   Bitrate             Description
-----                   -------             -----------
MPEG-2 Video            23711 kbps          1080p / 23,976 fps / 16:9
AUDIO:
Codec                           Language        Bitrate         Description
-----                           --------        -------         -----------
Dolby Digital Audio             Russian         192 kbps        2.0 / 48 kHz / 192 kbps / DN -4dB
SUBTITLES:
Codec                           Language        Bitrate         Description
-----                           --------        -------         -----------
Interactive Graphics            English         8,888 kbps
FILES:
Name            Time In         Length          Size            Total Bitrate
----            -------         ------          ----            -------------
00003.M2TS      0:00:00.000     0:00:39.205     122 836 992     25 065
CHAPTERS:
Number          Time In         Length          Avg Video Rate  Max 1-Sec Rate  Max 1-Sec Time  Max 5-Sec Rate  Max 5-Sec Time  Max 10Sec Rate  Max 10Sec Time  Avg Frame Size  Max Frame Size  Max Frame Time
------          -------         ------          --------------  --------------  --------------  --------------  --------------  --------------  --------------  --------------  --------------  --------------
1               0:00:00.000     0:00:39.205     23 711 kbps     26 185 kbps     00:00:27.861    24 795 kbps     00:00:19.102    24 496 kbps     00:00:18.351    123 620 bytes   816 696 bytes   00:00:05.004
STREAM DIAGNOSTICS:
File            PID             Type            Codec           Language                Seconds                 Bitrate                 Bytes           Packets
----            ---             ----            -----           --------                --------------          --------------          -------------   -----
00003.M2TS      4113 (0x1011)   0x02            MPEG-2                                  39,164                  23 737                  116 202 819     632 065
00003.M2TS      4352 (0x1100)   0x81            AC3             rus (Russian)           39,164                  192                     940 800         6 125
00003.M2TS      5120 (0x1400)   0x91            IGS             eng (English)           39,164                  9                       43 556          247
QUICK SUMMARY:
Disc Title: ORANGES_HDCLUB
Disc Size: 23 584 798 720 bytes
Protection: AACS
BD-Java: No
Playlist: 00015.MPLS
Size: 122 836 992 bytes
Length: 0:00:39.205
Total Bitrate: 25,07 Mbps
Video: MPEG-2 Video / 23711 kbps / 1080p / 23,976 fps / 16:9
Audio: Russian / Dolby Digital Audio / 2.0 / 48 kHz / 192 kbps / DN -4dB
Subtitle: English / 8,888 kbps
********************
PLAYLIST: 00014.MPLS
********************
Код:
Total   Video
Title                                                           Codec   Length  Movie Size      Disc Size       Bitrate Bitrate Main Audio Track                          Secondary Audio Track
-----                                                           ------  ------- --------------  --------------  ------- ------- ------------------                        ---------------------
00014.MPLS                                                      MPEG-2  0:00:39 124 299 264     23 584 798 720  25,47   24,10   DD AC3 2.0 192Kbps
Код:
DISC INFO:
Disc Title:     ORANGES_HDCLUB
Disc Size:      23 584 798 720 bytes
Protection:     AACS
BD-Java:        No
Extras:         50Hz Content
BDInfo:         0.5.8
PLAYLIST REPORT:
Name:                   00014.MPLS
Length:                 0:00:39.038 (h:m:s.ms)
Size:                   124 299 264 bytes
Total Bitrate:          25,47 Mbps
VIDEO:
Codec                   Bitrate             Description
-----                   -------             -----------
MPEG-2 Video            24101 kbps          1080p / 23,976 fps / 16:9
AUDIO:
Codec                           Language        Bitrate         Description
-----                           --------        -------         -----------
Dolby Digital Audio             Russian         192 kbps        2.0 / 48 kHz / 192 kbps / DN -4dB
SUBTITLES:
Codec                           Language        Bitrate         Description
-----                           --------        -------         -----------
Interactive Graphics            English         8,169 kbps
FILES:
Name            Time In         Length          Size            Total Bitrate
----            -------         ------          ----            -------------
00001.M2TS      0:00:00.000     0:00:39.038     124 299 264     25 472
CHAPTERS:
Number          Time In         Length          Avg Video Rate  Max 1-Sec Rate  Max 1-Sec Time  Max 5-Sec Rate  Max 5-Sec Time  Max 10Sec Rate  Max 10Sec Time  Avg Frame Size  Max Frame Size  Max Frame Time
------          -------         ------          --------------  --------------  --------------  --------------  --------------  --------------  --------------  --------------  --------------  --------------
1               0:00:00.000     0:00:39.038     24 101 kbps     24 772 kbps     00:00:37.996    24 743 kbps     00:00:33.992    24 708 kbps     00:00:28.987    125 651 bytes   816 696 bytes   00:00:00.000
STREAM DIAGNOSTICS:
File            PID             Type            Codec           Language                Seconds                 Bitrate                 Bytes           Packets
----            ---             ----            -----           --------                --------------          --------------          -------------   -----
00001.M2TS      4113 (0x1011)   0x02            MPEG-2                                  38,914                  24 178                  117 609 368     639 704
00001.M2TS      4352 (0x1100)   0x81            AC3             rus (Russian)           38,914                  193                     938 496         6 110
00001.M2TS      5120 (0x1400)   0x91            IGS             eng (English)           38,914                  8                       39 865          226
QUICK SUMMARY:
Disc Title: ORANGES_HDCLUB
Disc Size: 23 584 798 720 bytes
Protection: AACS
BD-Java: No
Playlist: 00014.MPLS
Size: 124 299 264 bytes
Length: 0:00:39.038
Total Bitrate: 25,47 Mbps
Video: MPEG-2 Video / 24101 kbps / 1080p / 23,976 fps / 16:9
Audio: Russian / Dolby Digital Audio / 2.0 / 48 kHz / 192 kbps / DN -4dB
Subtitle: English / 8,169 kbps
********************
PLAYLIST: 00016.MPLS
********************
Код:
Total   Video
Title                                                           Codec   Length  Movie Size      Disc Size       Bitrate Bitrate Main Audio Track                          Secondary Audio Track
-----                                                           ------  ------- --------------  --------------  ------- ------- ------------------                        ---------------------
00016.MPLS                                                      MPEG-2  0:00:39 124 391 424     23 584 798 720  25,49   24,12   DD AC3 2.0 192Kbps
Код:
DISC INFO:
Disc Title:     ORANGES_HDCLUB
Disc Size:      23 584 798 720 bytes
Protection:     AACS
BD-Java:        No
Extras:         50Hz Content
BDInfo:         0.5.8
PLAYLIST REPORT:
Name:                   00016.MPLS
Length:                 0:00:39.038 (h:m:s.ms)
Size:                   124 391 424 bytes
Total Bitrate:          25,49 Mbps
VIDEO:
Codec                   Bitrate             Description
-----                   -------             -----------
MPEG-2 Video            24120 kbps          1080p / 23,976 fps / 16:9
AUDIO:
Codec                           Language        Bitrate         Description
-----                           --------        -------         -----------
Dolby Digital Audio             Russian         192 kbps        2.0 / 48 kHz / 192 kbps / DN -4dB
SUBTITLES:
Codec                           Language        Bitrate         Description
-----                           --------        -------         -----------
Interactive Graphics            English         7,325 kbps
FILES:
Name            Time In         Length          Size            Total Bitrate
----            -------         ------          ----            -------------
00005.M2TS      0:00:00.000     0:00:39.038     124 391 424     25 491
CHAPTERS:
Number          Time In         Length          Avg Video Rate  Max 1-Sec Rate  Max 1-Sec Time  Max 5-Sec Rate  Max 5-Sec Time  Max 10Sec Rate  Max 10Sec Time  Avg Frame Size  Max Frame Size  Max Frame Time
------          -------         ------          --------------  --------------  --------------  --------------  --------------  --------------  --------------  --------------  --------------  --------------
1               0:00:00.000     0:00:39.038     24 120 kbps     25 405 kbps     00:00:35.785    25 117 kbps     00:00:32.615    24 807 kbps     00:00:28.987    125 750 bytes   816 696 bytes   00:00:02.001
STREAM DIAGNOSTICS:
File            PID             Type            Codec           Language                Seconds                 Bitrate                 Bytes           Packets
----            ---             ----            -----           --------                --------------          --------------          -------------   -----
00005.M2TS      4113 (0x1011)   0x02            MPEG-2                                  38,914                  24 198                  117 702 332     640 209
00005.M2TS      4352 (0x1100)   0x81            AC3             rus (Russian)           38,914                  193                     938 496         6 110
00005.M2TS      5120 (0x1400)   0x91            IGS             eng (English)           38,914                  7                       35 747          202
QUICK SUMMARY:
Disc Title: ORANGES_HDCLUB
Disc Size: 23 584 798 720 bytes
Protection: AACS
BD-Java: No
Playlist: 00016.MPLS
Size: 124 391 424 bytes
Length: 0:00:39.038
Total Bitrate: 25,49 Mbps
Video: MPEG-2 Video / 24120 kbps / 1080p / 23,976 fps / 16:9
Audio: Russian / Dolby Digital Audio / 2.0 / 48 kHz / 192 kbps / DN -4dB
Subtitle: English / 7,325 kbps
********************
PLAYLIST: 00017.MPLS
********************
Код:
Total   Video
Title                                                           Codec   Length  Movie Size      Disc Size       Bitrate Bitrate Main Audio Track                          Secondary Audio Track
-----                                                           ------  ------- --------------  --------------  ------- ------- ------------------                        ---------------------
00017.MPLS                                                      MPEG-2  0:00:39 123 930 624     23 584 798 720  25,40   24,03   DD AC3 2.0 192Kbps
Код:
DISC INFO:
Disc Title:     ORANGES_HDCLUB
Disc Size:      23 584 798 720 bytes
Protection:     AACS
BD-Java:        No
Extras:         50Hz Content
BDInfo:         0.5.8
PLAYLIST REPORT:
Name:                   00017.MPLS
Length:                 0:00:39.038 (h:m:s.ms)
Size:                   123 930 624 bytes
Total Bitrate:          25,40 Mbps
VIDEO:
Codec                   Bitrate             Description
-----                   -------             -----------
MPEG-2 Video            24025 kbps          1080p / 23,976 fps / 16:9
AUDIO:
Codec                           Language        Bitrate         Description
-----                           --------        -------         -----------
Dolby Digital Audio             Russian         192 kbps        2.0 / 48 kHz / 192 kbps / DN -4dB
SUBTITLES:
Codec                           Language        Bitrate         Description
-----                           --------        -------         -----------
Interactive Graphics            English         11,463 kbps
FILES:
Name            Time In         Length          Size            Total Bitrate
----            -------         ------          ----            -------------
00007.M2TS      0:00:00.000     0:00:39.038     123 930 624     25 396
CHAPTERS:
Number          Time In         Length          Avg Video Rate  Max 1-Sec Rate  Max 1-Sec Time  Max 5-Sec Rate  Max 5-Sec Time  Max 10Sec Rate  Max 10Sec Time  Avg Frame Size  Max Frame Size  Max Frame Time
------          -------         ------          --------------  --------------  --------------  --------------  --------------  --------------  --------------  --------------  --------------  --------------
1               0:00:00.000     0:00:39.038     24 025 kbps     26 440 kbps     00:00:37.120    25 089 kbps     00:00:32.866    24 932 kbps     00:00:28.111    125 257 bytes   816 696 bytes   00:00:00.000
STREAM DIAGNOSTICS:
File            PID             Type            Codec           Language                Seconds                 Bitrate                 Bytes           Packets
----            ---             ----            -----           --------                --------------          --------------          -------------   -----
00007.M2TS      4113 (0x1011)   0x02            MPEG-2                                  38,914                  24 103                  117 240 749     637 708
00007.M2TS      4352 (0x1100)   0x81            AC3             rus (Russian)           38,914                  193                     938 496         6 110
00007.M2TS      5120 (0x1400)   0x91            IGS             eng (English)           38,914                  12                      55 939          321
QUICK SUMMARY:
Disc Title: ORANGES_HDCLUB
Disc Size: 23 584 798 720 bytes
Protection: AACS
BD-Java: No
Playlist: 00017.MPLS
Size: 123 930 624 bytes
Length: 0:00:39.038
Total Bitrate: 25,40 Mbps
Video: MPEG-2 Video / 24025 kbps / 1080p / 23,976 fps / 16:9
Audio: Russian / Dolby Digital Audio / 2.0 / 48 kHz / 192 kbps / DN -4dB
Subtitle: English / 11,463 kbps

Скриншоты

Other forum [Profile] [PM]
Similar theme
Forum Topic Author Torrent Replies Last Post
./templates/default/images/folder_dl.gif Техническая и научно-популярная литература Вадим Долгов | Потаенная жизнь Древней Руси. Быт, нравы, любовь [2009] [FB2] Omen
0 | 1

0 | 566

1

2013-04-30 18:33
Omen Latest
./templates/default/images/folder_dl.gif Современная проза, классика, поэзия Понсон дю Террайль Пьер Алексис - Варфоломеевская ночь 01. Любовные похождения Трефового Валета [Деркач Леонид, 2013 г., 96 kbps, MP3] Omen
1 | 0

0 | 892

0

2014-02-03 23:32
Omen Latest
./templates/default/images/folder_dl.gif Приключения и квесты Mahjong Detective: The Stolen Love / Маджонг Детектив. Похищенная Любовь [P] [RUS] (2015) Omen
1 | 0

0 | 2097

25

2015-06-08 21:00
Omen Latest
Display posts from previous:    
Reply to topic

The time now is: Today 11:05

All times are GMT + 3 Hours



You cannot post new topics in this forum
You cannot reply to topics in this forum
You cannot edit your posts in this forum
You cannot delete your posts in this forum
You cannot vote in polls in this forum
You cannot attach files in this forum
You cannot download files in this forum