Today is a free download without charge Download

О, Господи! / Невероятная история / OMG: Oh My God! (Умеш Шукла / Umesh Shukla) [2012, Индия, Комедия, BDRip 720p] MVO (BaibaKo) + MVO (ICG) + Sub Rus

Reply to topic
 
Author
Message

Omen ®

Longevity: 8 years 5 months

Posts: 181087

Торрент-статистика

Post 02-Apr-2013 01:21

[Quote]

О, Господи! / OMG: Oh My God!-Страна: Индия
Жанр: Комедия
Год выпуска: 2012
Продолжительность: 02:09:32
Перевод 1: Профессиональный (многоголосый закадровый) BaibaKo
Перевод 2: Любительский (многоголосый закадровый) ICG: Роли озвучивали: Александр Нелюбин, Андрей Хомяков, Ирина Грачева и Марина Комчарукова
Русские субтитры: Есть (полные+только на песни)
Оригинальная аудиодорожка: Хинди
Режиссер: Умеш Шукла / Umesh Shukla
В ролях: Акшай Кумар, Митхун Чакраборти, Прабху Дева, Махеш Манджрекар, Говинд Намдео, Пареш Равал, Мурли Шарма, Сонакши Синха
Описание: Oh My God (OMG) - фильм основан на пьесе "Кишан против Канхайи" и заставляет задуматься над верой в Бога.
Сюжет вращается вокруг владельца антикварной лавки Канджи Лалджи Мехты (Пареш Равал). Вся его жизнь рушится из-за стихийного бедствия. Беспомощный и разбитый, он подвергает сомнению существование Бога и подаёт на Него в суд. Когда его поведение приводит к общенациональному хаосу, это привлекает внимание бога Кришны, которого играет Акшай Кумар. Кришна навещает Канджи, так происходит поворот в сюжете.- IMDB-Формат: MKV
Качество: BDRip 720p
Видео: 1280 x 544 (2.353) at 24.000 fps, AVC at 4096 Кбит/сек
Аудио 1: Rus BaibaKo: AC-3 at 384 Кбит/сек, 6 каналов, 48,0 КГц
Аудио 2: Rus ICG: AC-3 at 448 Кбит/сек, 6 каналов, 48,0 КГц
Аудио 3: Hindi: DTS at 1509 Кбит/сек, 6 каналов, 48,0 КГц
Субтитры: UTF-8
СЕМПЛ

MediaInfo

Общее
Уникальный идентификатор : 217184842696729287778820967952195115196 (0xA3644779C2A97DC1B6D5B74CBED9D8BC)
Полное имя : О, Господи! - OMG Oh My God (2012) BDRip 720p.mkv
Формат : Matroska
Версия формата : Version 4 / Version 2
Размер файла : 5,82 Гбайт
Продолжительность : 2 ч. 9 м.
Режим общего битрейта : Переменный
Общий поток : 6437 Кбит/сек
Название фильма : О, Господи! / OMG: Oh My God!
Дата кодирования : UTC 2013-04-01 18:27:31
Программа кодирования : mkvmerge v6.1.0 ('Old Devil') built on Mar 2 2013 14:32:37
Библиотека кодирования : libebml v1.3.0 + libmatroska v1.4.0
Видео
Идентификатор : 1
Формат : AVC
Формат/Информация : Advanced Video Codec
Профиль формата : [email protected]
Параметр CABAC формата : Да
Параметр ReFrames формата : 5 кадров
Идентификатор кодека : V_MPEG4/ISO/AVC
Продолжительность : 2 ч. 9 м.
Вид битрейта : Переменный
Битрейт : 4096 Кбит/сек
Максимальный битрейт : 62,5 Мбит/сек
Ширина : 1280 пикселей
Высота : 544 пикселя
Соотношение сторон : 2,35:1
Режим частоты кадров : Постоянный
Частота кадров : 24,000 кадра/сек
Цветовое пространство : YUV
Субдискретизация насыщенности : 4:2:0
Битовая глубина : 8 бит
Тип развёртки : Прогрессивная
Бит/(Пиксели*Кадры) : 0.245
Размер потока : 3,59 Гбайт (62%)
Заголовок : О, Господи! / OMG: Oh My God!
Библиотека кодирования : x264 core 125 r2208 d9d2288
Настройки программы : cabac=1 / ref=5 / deblock=1:-1:-1 / analyse=0x3:0x113 / me=umh / subme=8 / psy=1 / psy_rd=1.00:0.15 / mixed_ref=1 / me_range=16 / chroma_me=1 / trellis=1 / 8x8dct=1 / cqm=0 / deadzone=21,11 / fast_pskip=1 / chroma_qp_offset=-3 / threads=6 / lookahead_threads=1 / sliced_threads=0 / nr=0 / decimate=1 / interlaced=0 / bluray_compat=0 / constrained_intra=0 / bframes=3 / b_pyramid=0 / b_adapt=2 / b_bias=0 / direct=3 / weightb=1 / open_gop=0 / weightp=2 / keyint=240 / keyint_min=24 / scenecut=40 / intra_refresh=0 / rc_lookahead=50 / rc=2pass / mbtree=1 / bitrate=4096 / ratetol=1.0 / qcomp=0.60 / qpmin=0 / qpmax=69 / qpstep=4 / cplxblur=20.0 / qblur=0.5 / vbv_maxrate=62500 / vbv_bufsize=62500 / nal_hrd=vbr / ip_ratio=1.40 / aq=1:1.00
Язык : Hindi
Default : Да
Forced : Нет
Аудио #1
Идентификатор : 2
Формат : AC-3
Формат/Информация : Audio Coding 3
Расширение режима : CM (complete main)
Параметр Endianness формата : Big
Идентификатор кодека : A_AC3
Продолжительность : 2 ч. 9 м.
Вид битрейта : Постоянный
Битрейт : 384 Кбит/сек
Каналы : 6 каналов
Расположение каналов : Front: L C R, Side: L R, LFE
Частота : 48,0 КГц
Битовая глубина : 16 бит
Метод сжатия : С потерями
Размер потока : 356 Мбайт (6%)
Заголовок : Русский от BaibaKo DD5.1
Язык : Russian
Default : Да
Forced : Нет
Аудио #2
Идентификатор : 3
Формат : AC-3
Формат/Информация : Audio Coding 3
Расширение режима : CM (complete main)
Параметр Endianness формата : Big
Идентификатор кодека : A_AC3
Продолжительность : 2 ч. 9 м.
Вид битрейта : Постоянный
Битрейт : 448 Кбит/сек
Каналы : 6 каналов
Расположение каналов : Front: L C R, Side: L R, LFE
Частота : 48,0 КГц
Битовая глубина : 16 бит
Метод сжатия : С потерями
Размер потока : 415 Мбайт (7%)
Заголовок : Русский от ICG: Роли озвучивали: Александр Нелюбин, Андрей Хомяков, Ирина Грачева и Марина Комчарукова
Язык : Russian
Default : Нет
Forced : Нет
Аудио #3
Идентификатор : 4
Формат : DTS
Формат/Информация : Digital Theater Systems
Режим : 16
Параметр Endianness формата : Big
Идентификатор кодека : A_DTS
Продолжительность : 2 ч. 9 м.
Вид битрейта : Постоянный
Битрейт : 1509 Кбит/сек
Каналы : 6 каналов
Расположение каналов : Front: L C R, Side: L R, LFE
Частота : 48,0 КГц
Битовая глубина : 24 бит
Метод сжатия : С потерями
Размер потока : 1,37 Гбайт (23%)
Заголовок : Hindi DTS 5.1
Язык : Hindi
Default : Нет
Forced : Нет
Текст #1
Идентификатор : 5
Формат : UTF-8
Идентификатор кодека : S_TEXT/UTF8
Идентификатор кодека/Информация : UTF-8 Plain Text
Заголовок : Полные русские субтитры
Язык : Russian
Default : Нет
Forced : Нет
Текст #2
Идентификатор : 6
Формат : UTF-8
Идентификатор кодека : S_TEXT/UTF8
Идентификатор кодека/Информация : UTF-8 Plain Text
Заголовок : Русские субтитры на песни
Язык : Russian
Default : Нет
Forced : Нет
Меню
00:00:00.000 : en:00:00:00.000
00:06:41.083 : en:00:06:41.083
00:13:01.042 : en:00:13:01.042
00:17:52.708 : en:00:17:52.708
00:24:47.292 : en:00:24:47.292
00:30:44.583 : en:00:30:44.583
00:37:38.125 : en:00:37:38.125
00:38:29.625 : en:00:38:29.625
00:40:28.958 : en:00:40:28.958
00:54:25.875 : en:00:54:25.875
00:59:37.458 : en:00:59:37.458
01:17:14.208 : en:01:17:14.208
01:34:15.667 : en:01:34:15.667
01:37:40.625 : en:01:37:40.625
01:47:27.708 : en:01:47:27.708
02:06:16.208 : en:02:06:16.208

Скриншоты

Other forum [Profile] [PM]
Display posts from previous:    
Reply to topic

The time now is: Today 12:48

All times are GMT + 3 Hours



You cannot post new topics in this forum
You cannot reply to topics in this forum
You cannot edit your posts in this forum
You cannot delete your posts in this forum
You cannot vote in polls in this forum
You cannot attach files in this forum
You cannot download files in this forum