Today is a free download without charge Download

Разные вещи / All Things Fall Apart (Марио Ван Пиблз / Mario Van Peebles) [2011, США, драма, спорт, BDRip 720p] VO (den904) + Original (Eng) + Sub (Eng)

Reply to topic
 
Author
Message

Omen ®

Longevity: 8 years 5 months

Posts: 181087

Торрент-статистика

Post 02-Apr-2013 01:21

[Quote]

Разные вещи / All Things Fall Apart Страна: США
Студия: Cheetah Vision, Tax Credit Finance
Жанр: драма, спорт
Год выпуска: 2011
Продолжительность: 01:50:17
Перевод: Одноголосый закадровый den904
Cубтитры: английские
Оригинальная аудиодорожка: английский
Режиссер: Марио Ван Пиблз / Mario Van Peebles
В ролях: Рэй Лиотта, Фифти Сент (Кертис Джеймс Джексон III), Трэйси Хеггинс, Марио Ван Пиблз, Линн Уитфилд, Эмбир Чилдерс, Элизабет Родригез, Стив Истин, Седрик Сандерс, Кори Лардж
Описание:
Фильм «Разные вещи» – спортивная драма, действие которой сосредоточено вокруг многообещающего спортсмена, занимающегося американским футболом. Деон (Фифти Сент) – звезда американского футбола, четвертый год выступающий за колледж и находящийся в одном шаге от вступления в профессиональную лигу. Несмотря на популярность и славу, Деон любит свою семью и заботится о близких: маме и младшем брате. Между тем, жизнь готовит герою фильма «Разные вещи» жестокое испытание – он узнает о том, что у него рак…
- || || || -Тип релиза: BDRip 720p (рип от CHD)
Контейнер: MKV
Видео: AVC (x264), 1280x720 (16:9) at 23,976 fps, 4157 Кbps, 0.188 bpp
Аудио 1: DTS; 1536 Kbps; CBR; 6 ch; 48 khz; 16 bit | VO - den904 |
Аудио 2: DTS; 1536 Kbps; CBR; 6 ch; 48 khz; 16 bit | Английский |
Формат субтитров: softsub (SRT)

Скриншоты || x264 Info || MediaInfo || Notes

Notes:

Цитата:
  • Поименованые главы взяты с All.Things.Fall.Apart.2011.NTSC.DVDR-0MNiDVD

MediaInfo

Код:
Общее
Уникальный идентификатор                 : 208768645643708802688520187403897338555 (0x9D0F60EC8C5505219BB420C49BEEFABB)
Полное имя                               : Разные вещи.2011.L1.720p.BluRay.x264-CHD.mkv
Формат                                   : Matroska
Версия формата                           : Version 4 / Version 2
Размер файла                             : 5,53 Гбайт
Продолжительность                        : 1 ч. 50 м.
Общий поток                              : 7178 Кбит/сек
Название фильма                          : profile.php?mode=viewprofile&u=22488948
Дата кодирования                         : UTC 2013-04-01 16:08:30
Программа кодирования                    : mkvmerge v6.1.0 ('Old Devil') built on Mar  2 2013 14:32:37
Библиотека кодирования                   : libebml v1.3.0 + libmatroska v1.4.0
Видео
Идентификатор                            : 1
Формат                                   : AVC
Формат/Информация                        : Advanced Video Codec
Профиль формата                          : [email protected]
Параметр CABAC формата                   : Да
Параметр ReFrames формата                : 9 кадров
Идентификатор кодека                     : V_MPEG4/ISO/AVC
Продолжительность                        : 1 ч. 50 м.
Битрейт                                  : 4157 Кбит/сек
Ширина                                   : 1280 пикселей
Высота                                   : 720 пикселей
Соотношение сторон                       : 16:9
Режим частоты кадров                     : Постоянный
Частота кадров                           : 23,976 кадра/сек
Цветовое пространство                    : YUV
Субдискретизация насыщенности            : 4:2:0
Битовая глубина                          : 8 бит
Тип развёртки                            : Прогрессивная
Бит/(Пиксели*Кадры)                      : 0.188
Размер потока                            : 3,09 Гбайт (56%)
Библиотека кодирования                   : x264 core 116 r2074 2641b9e
Настройки программы                      : cabac=1 / ref=9 / deblock=1:-3:-3 / analyse=0x3:0x113 / me=umh / subme=10 / psy=1 / psy_rd=1.10:0.15 / mixed_ref=1 / me_range=32 / chroma_me=1 / trellis=2 / 8x8dct=1 / cqm=2 / deadzone=21,11 / fast_pskip=0 / chroma_qp_offset=-2 / threads=12 / sliced_threads=0 / nr=0 / decimate=1 / interlaced=0 / bluray_compat=0 / constrained_intra=0 / bframes=6 / b_pyramid=2 / b_adapt=2 / b_bias=0 / direct=3 / weightb=1 / open_gop=0 / weightp=2 / keyint=250 / keyint_min=23 / scenecut=40 / intra_refresh=0 / rc_lookahead=60 / rc=2pass / mbtree=1 / bitrate=4157 / ratetol=1.0 / qcomp=0.60 / qpmin=1 / qpmax=63 / qpstep=4 / cplxblur=20.0 / qblur=0.5 / vbv_maxrate=40000 / vbv_bufsize=40000 / nal_hrd=none / ip_ratio=1.40 / aq=1:0.80
Язык                                     : English
Default                                  : Да
Forced                                   : Нет
Аудио #1
Идентификатор                            : 2
Формат                                   : DTS
Формат/Информация                        : Digital Theater Systems
Режим                                    : 16
Параметр Endianness формата              : Big
Идентификатор кодека                     : A_DTS
Продолжительность                        : 1 ч. 50 м.
Вид битрейта                             : Постоянный
Битрейт                                  : 1509 Кбит/сек
Каналы                                   : 6 каналов
Расположение каналов                     : Front: L C R, Side: L R, LFE
Частота                                  : 48,0 КГц
Битовая глубина                          : 16 бит
Метод сжатия                             : С потерями
Размер потока                            : 1,16 Гбайт (21%)
Заголовок                                : VO [den904]
Язык                                     : Russian
Default                                  : Да
Forced                                   : Нет
Аудио #2
Идентификатор                            : 3
Формат                                   : DTS
Формат/Информация                        : Digital Theater Systems
Режим                                    : 16
Параметр Endianness формата              : Big
Идентификатор кодека                     : A_DTS
Продолжительность                        : 1 ч. 50 м.
Вид битрейта                             : Постоянный
Битрейт                                  : 1509 Кбит/сек
Каналы                                   : 6 каналов
Расположение каналов                     : Front: L C R, Side: L R, LFE
Частота                                  : 48,0 КГц
Битовая глубина                          : 16 бит
Метод сжатия                             : С потерями
Размер потока                            : 1,16 Гбайт (21%)
Язык                                     : English
Default                                  : Нет
Forced                                   : Нет
Текст
Идентификатор                            : 4
Формат                                   : UTF-8
Идентификатор кодека                     : S_TEXT/UTF8
Идентификатор кодека/Информация          : UTF-8 Plain Text
Язык                                     : English
Default                                  : Нет
Forced                                   : Нет
Меню
00:00:00.000                             : en:Main Titles
00:06:12.000                             : en:Watching Your Back
00:14:59.000                             : en:No Pushing
00:26:24.000                             : en:Final Offer
00:36:05.000                             : en:Wait and See
00:46:10.000                             : en:It Takes Time
00:58:14.000                             : en:Back at Square One
01:04:59.000                             : en:You Said You Loved Me
01:14:44.000                             : en:The New Guy
01:22:43.000                             : en:Second Chance
01:36:31.000                             : en:Got Paid
01:46:31.000                             : en:End Credits

x264 Info

x264 [info]: frame I:1555 Avg QP:14.57 size:144522
x264 [info]: frame P:39181 Avg QP:15.61 size: 46673
x264 [info]: frame B:117917 Avg QP:20.31 size: 11746
Other forum [Profile] [PM]
Display posts from previous:    
Reply to topic

The time now is: Today 01:09

All times are GMT + 3 Hours



You cannot post new topics in this forum
You cannot reply to topics in this forum
You cannot edit your posts in this forum
You cannot delete your posts in this forum
You cannot vote in polls in this forum
You cannot attach files in this forum
You cannot download files in this forum