Today is a free download without charge Download

Неизбежность / Inescapable (Руба Надда / Ruba Nadda) [2012, Канада, ЮАР, драма, мелодрама, детектив, BDRip 720p] VO den904 + Original Eng

Reply to topic
 
Author
Message

Omen ®

Longevity: 8 years 5 months

Posts: 181087

Торрент-статистика

Post 02-Apr-2013 01:21

[Quote]

Неизбежность / Inescapable
«You can never escape your past.»
- Страна: Канада, ЮАР
Студия: Killer Films
Жанр: драма, мелодрама, детектив
Год выпуска: 2012
Продолжительность: 1:32:57
Перевод: Одноголосый закадровый den904
Cубтитры: нет
Оригинальная аудиодорожка: английская
Режиссер: Руба Надда / Ruba Nadda
В ролях: Александр Сиддиг, Джошуа Джексон, Мариса Томей, Одед Фер, Саад Сиддикуи, Фадия Надда, Бонни Ли Бауман, Джессика Энсти
Описание: Спустя годы, после того как он при подозрительных обстоятельствах покинул Дамаск, Адибу Абдель Кариму приходится столкнуться со своим прошлым, когда его дочь пропадает без вести.

Тип релиза: BDRip 720p [HDWing]
Контейнер: MKV
Видео: 1280x720 (16:9), 24,000 fps, x264 ~5226 kbps avg, 0.236 bit/pixel
Аудио: 48 kHz, AC3 Dolby Digital, 3/2 (L,C,R,l,r) + LFE ch, 448 kbps (русская)
Аудио 2: 48 kHz, Digital Theater Systems, 3/2 (L,C,R,l,r) + LFE ch, 1510 kbps (английская)

MediaInfo

ОбщееУникальный идентификатор : 185567617615234034850688612192654538472 (0x8B9B05ECFC8F4C2DB11988BE287536E8)Полное имя : Inescapable.2012.720p.BluRay.DTS.x264.mkvФормат : MatroskaВерсия формата : Version 2Размер файла : 4,66 ГбайтПродолжительность : 1 ч. 32 м.Общий поток : 7173 Кбит/секНазвание фильма : Inescapable.2012.720p.BluRay.DTS.x264-HDWingДата кодирования : UTC 2013-03-31 09:12:00Программа кодирования : mkvmerge v4.5.0 ('Speed of Light') сборка от Feb 1 2011 02:10:32Библиотека кодирования : libebml v1.2.0 + libmatroska v1.1.0
ВидеоИдентификатор : 1Формат : AVCФормат/Информация : Advanced Video CodecПрофиль формата : [email protected]Параметр CABAC формата : ДаПараметр ReFrames формата : 9 кадровИдентификатор кодека : V_MPEG4/ISO/AVCПродолжительность : 1 ч. 32 м.Битрейт : 5226 Кбит/секШирина : 1280 пикселейВысота : 720 пикселейСоотношение сторон : 16:9Частота кадров : 24,000 кадра/секЦветовое пространство : YUVСубдискретизация насыщенности : 4:2:0Битовая глубина : 8 битТип развёртки : ПрогрессивнаяБит/(Пиксели*Кадры) : 0.236Размер потока : 3,29 Гбайт (71%)Заголовок : Inescapable.2012.720p.BluRay.DTS.x264-HDWingБиблиотека кодирования : x264 core 129 r2245 bc13772Настройки программы : cabac=1 / ref=9 / deblock=1:-3:-3 / analyse=0x3:0x133 / me=umh / subme=11psy=1 / psy_rd=1.10:0.10 / mixed_ref=1 / me_range=32 / chroma_me=1 / trellis=2 / 8x8dct=1 / cqm=0 / deadzone=21,11fast_pskip=0 / chroma_qp_offset=-2 / threads=6 / lookahead_threads=1 / sliced_threads=0 / nr=0 / decimate=1interlaced=0 / bluray_compat=0 / constrained_intra=0 / bframes=8 / b_pyramid=2 / b_adapt=2 / b_bias=0 / direct=3weightb=1 / open_gop=0 / weightp=2 / keyint=250 / keyint_min=24 / scenecut=40 / intra_refresh=0 / rc_lookahead=40rc=2pass / mbtree=0 / bitrate=5226 / ratetol=1.0 / qcomp=0.70 / qpmin=0 / qpmax=69 / qpstep=4 / cplxblur=20.0qblur=0.5 / vbv_maxrate=40000 / vbv_bufsize=30000 / nal_hrd=none / ip_ratio=1.40 / pb_ratio=1.30 / aq=2:0.90Язык : EnglishDefault : ДаForced : Нет
Аудио #1Идентификатор : 2Формат : AC-3Формат/Информация : Audio Coding 3Расширение режима : CM (complete main)Идентификатор кодека : A_AC3Продолжительность : 1 ч. 32 м.Вид битрейта : ПостоянныйБитрейт : 448 Кбит/секКаналы : 6 каналовРасположение каналов : Front: L C R, Side: L R, LFEЧастота : 48,0 КГцБитовая глубина : 16 битМетод сжатия : С потерямиРазмер потока : 298 Мбайт (6%)Заголовок : ac3 5.1 448 kbpsЯзык : RussianDefault : ДаForced : Нет
Аудио #2Идентификатор : 3Формат : DTSФормат/Информация : Digital Theater SystemsИдентификатор кодека : A_DTSПродолжительность : 1 ч. 32 м.Вид битрейта : ПостоянныйБитрейт : 1510 Кбит/секКаналы : 6 каналовРасположение каналов : Front: L C R, Side: L R, LFEЧастота : 48,0 КГцБитовая глубина : 24 битМетод сжатия : С потерямиЗадержка видео : 11 мс.Размер потока : 1004 Мбайт (21%)Заголовок : dts 5.1 1510 kbpsЯзык : EnglishDefault : НетForced : Нет
Меню00:00:00.000 : en:00:00:00.00000:01:54.000 : en:00:01:54.00000:09:27.000 : en:00:09:27.00000:18:03.500 : en:00:18:03.50000:26:32.500 : en:00:26:32.50000:36:16.000 : en:00:36:16.00000:46:05.500 : en:00:46:05.50000:56:39.500 : en:00:56:39.50001:07:55.500 : en:01:07:55.50001:15:53.500 : en:01:15:53.50001:26:25.500 : en:01:26:25.500

Видеоряд от HDWing

Inescapable.2012.720p.BluRay.DTS.x264-HDWing
----------MEDiA iNFO------------
SOURCE TYPE.....: 2012.COMPLETE.BLURAY-NoSenceViDEO BiTRATE...: x264 L4.1 High @ 6 724 KbpsFRAME RATE......: 24.000AUDiO1..........: English DTS 5.1 @ 1509 kbpsRESOLUTiON......: 1280 x 720SUBTiTLE........: N/AENCODER ........: CheeSeHead @ HDWing
----------X264 iNFO------------
x264 [info]: frame I:838 Avg QP:14.72 size:118609x264 [info]: frame P:27705 Avg QP:17.07 size: 47588x264 [info]: frame B:105283 Avg QP:19.21 size: 21051x264 [info]: consecutive B-frames: 1.7% 1.9% 6.1% 18.6% 14.8% 45.8% 5.1% 1.6% 4.4%

Скриншоты


Other forum [Profile] [PM]
Display posts from previous:    
Reply to topic

The time now is: Today 08:47

All times are GMT + 3 Hours



You cannot post new topics in this forum
You cannot reply to topics in this forum
You cannot edit your posts in this forum
You cannot delete your posts in this forum
You cannot vote in polls in this forum
You cannot attach files in this forum
You cannot download files in this forum