Today is a free download without charge Download

LUNA SEA - Live! LUNA SEA LIVE TOUR 2012-2013 ~The End of the Dream~ [2013, JRock, HDTV 1080i]

Reply to topic
 
Author
Message

Omen ®

Longevity: 8 years 4 months

Posts: 181087

Торрент-статистика

Post 02-Apr-2013 01:21

[Quote]


生中継! LUNA SEA LIVE TOUR 2012-2013
~The End of the Dream~
The final act at Nihon Budokan


Жанр: JRock
Продолжительность: 02:48:55
Год выпуска: 2013

"Concept.2 RISING ERA -UN ENDING LOVE & HATE-" SET LIST
01. LOVELESS
02. Dejavu
03. G.
04. END OF SORROW
05. TRUE BLUE
06. Rouge
07. gravity
08. Providence
09. Ray
10. The End of the Dream
11. Bass solo
12. BLUE TRANSPARENCY ~Kagirinaku toumei ni chikai blue~
13. Drum solo
14. TIME IS DEAD
15. ROSIER
16. TONIGHT
-EN1-
17. I for You
18. IN SILENCE
19. PRECIOUS...
20. WISH
21. MOTHER
-EN2-
22. BELIEVE
MUSIC VIDEOS
* The End of the Dream
* Rouge

Тех. данные

Качество: HDTV 1080i
Контейнер: TS
Видео кодек: MPEG2
Аудио кодек: AAC
Видео: 17,9 Mb/s, 1920x1080 (16:9), 29.970 fps
Аудио: 192 kbps, 2 ch, 48,0 kHz

Отчёт MediaInfo

Идентификатор : 16432 (0x4030)Полное имя : *:\***\***\***\KPop\LUNA SEA - 生中継!LUNA SEA LIVE TOUR 2012-2013 The End of the Dream\LUNA SEA - 生中継!LUNA SEA LIVE TOUR 2012-2013 The End of the Dream [WOWOW PRIME].tsФормат : MPEG-TSРазмер файла : 22,4 ГбайтПродолжительность : 2 ч. 48 м.Режим общего битрейта : ПеременныйОбщий поток : 19,0 Мбит/сек
ВидеоИдентификатор : 320 (0x140)Идентификатор меню : 191 (0xBF)Формат : MPEG VideoВерсия формата : Version 2Профиль формата : M[email protected]Параметр BVOP формата : ДаПараметр матрицы формата : ВыборочнаяИдентификатор кодека : 2Продолжительность : 2 ч. 48 м.Вид битрейта : ПеременныйБитрейт : 17,9 Мбит/секШирина : 1920 пикселейВысота : 1080 пикселейСоотношение сторон : 16:9Частота кадров : 29,970 кадров/секЦветовое пространство : YUVСубдискретизация насыщенности : 4:2:0Битовая глубина : 8 битТип развёртки : ЧересстрочнаяПорядок развёртки : Верхнее поле первоеМетод сжатия : С потерямиБит/(Пиксели*Кадры) : 0.288Размер потока : 21,1 Гбайт (94%)Основные цвета : BT.709Характеристики трансфера : BT.709Коэффициенты матрицы : BT.709
АудиоИдентификатор : 321 (0x141)Идентификатор меню : 191 (0xBF)Формат : AACФормат/Информация : Advanced Audio CodecВерсия формата : Version 2Профиль формата : LCРежим смешивания : ADTSИдентификатор кодека : 15Продолжительность : 2 ч. 48 м.Вид битрейта : Постоянный / Переменный / ПеременныйБитрейт : 192 Кбит/секМинимальный битрейт : 171 Кбит/сек / 171 Кбит/секМаксимальный битрейт : 296 Кбит/сек / 296 Кбит/секКаналы : 2 каналаРасположение каналов : Front: L RЧастота : 48,0 КГцМетод сжатия : С потерямиЗадержка видео : -274 мс.Размер потока : 232 Мбайт (1%)
Other forum [Profile] [PM]
Display posts from previous:    
Reply to topic

The time now is: Today 09:36

All times are GMT + 3 Hours



You cannot post new topics in this forum
You cannot reply to topics in this forum
You cannot edit your posts in this forum
You cannot delete your posts in this forum
You cannot vote in polls in this forum
You cannot attach files in this forum
You cannot download files in this forum