Today is a free download without charge Download

Падение / One Fall (2011) SATRip

Reply to topic
 
Author
Message

UndegraundMen ®

Longevity: 7 years 11 months

Posts: 25145

Торрент-статистика

Post 02-Apr-2013 00:01

[Quote]

Падение / One Fall (2011) SATRip-You can't choose your destiny... It chooses you.»
Русское название: Падение
Оригинальное название: One Fall
Год выпуска: 2011
Страна: США
Жанр: Драма-Описание фильма:
История мужчины, у которого появляется дар исцелять людей после падения с высоты 60 метров.-Режиссер: Маркус Дин Фуллер
Актеры: Маркус Дин Фуллер, Зои МакЛеллан, Симус Мулкахи, Джеймс МакКэффри, Марк Ла Мура, Марк Марголис, Доминик Фумуса, Филлис Соммервиль, Ли Энн Хатчинсон, Одри Эми-Продолжительность: 01:24:29
Перевод: Многоголосый закадровый- -Дата мировой премьеры: 9 сентября 2011-Видеокодек: Xvid
Битрейт видео: ~1025 kbps
Размер кадра: 704x448
Качество видео: SATRip
Аудиокодек: MP3 (2 ch)
Битрейт аудио: 128 kbps

MediaInfo

Общее
Полное имя : D:\Торрент раздача\Padenie.2011.SATRip.700MB.avi
Формат : AVI
Формат/Информация : Audio Video Interleave
Размер файла : 703 Мбайт
Продолжительность : 1 ч. 24 м.
Общий поток : 1164 Кбит/сек
Программа кодирования : VirtualDubMod 1.5.10.3 | www.virtualdub-fr.org || (build 2550/release)
Библиотека кодирования : VirtualDubMod build 2550/release
Видео
Идентификатор : 0
Формат : MPEG-4 Visual
Профиль формата : Advanced [email protected]
Параметр BVOP формата : 2
Параметр QPel формата : Нет
Параметр GMC формата : Без точки перехода
Параметр матрицы формата : Default (MPEG)
Идентификатор кодека : XVID
Идентификатор кодека/Подсказка : XviD
Продолжительность : 1 ч. 24 м.
Битрейт : 1026 Кбит/сек
Ширина : 704 пикселя
Высота : 448 пикселей
Соотношение сторон : 1,571
Частота кадров : 25,000 кадров/сек
Цветовое пространство : YUV
Субдискретизация насыщенности : 4:2:0
Битовая глубина : 8 бит
Тип развёртки : Прогрессивная
Метод сжатия : С потерями
Бит/(Пиксели*Кадры) : 0.130
Размер потока : 620 Мбайт (88%)
Библиотека кодирования : XviD 1.2.1 (UTC 2008-12-04)
Аудио
Идентификатор : 1
Формат : MPEG Audio
Версия формата : Version 1
Профиль формата : Layer 3
Режим : Joint stereo
Расширение режима : MS Stereo
Идентификатор кодека : 55
Идентификатор кодека/Подсказка : MP3
Продолжительность : 1 ч. 24 м.
Вид битрейта : Постоянный
Битрейт : 128 Кбит/сек
Каналы : 2 канала
Частота : 48,0 КГц
Метод сжатия : С потерями
Размер потока : 77,4 Мбайт (11%)
Выравнивание : Соединение по промежуткам
Продолжительность промежутка : 40 мс. (1,00 видеокадр)
Время предзагрузки промежутка : 504 мс.
Скриншоты:
           
Время раздачи: 24/7
Other forum [Profile] [PM]
Similar theme
Forum Topic Author Torrent Replies Last Post
./templates/default/images/folder_dl.gif Фантастика, фэнтези, ужасы, мистика Дэн Симмонс | Падение Гипериона (2018) [MP3] }{@R0N
2 | 0

0 | 672

2

2019-01-19 12:52
}{@R0N Latest
./templates/default/images/folder_dl.gif Фильмы 2011-2020 Падение ангела / Angel Has Fallen (2019) BDRip [H.264/720p] [PR] Clavik
1 | 0

0 | 577

2

2019-11-15 22:01
Clavik Latest
Display posts from previous:    
Reply to topic

The time now is: Today 07:29

All times are GMT + 3 Hours



You cannot post new topics in this forum
You cannot reply to topics in this forum
You cannot edit your posts in this forum
You cannot delete your posts in this forum
You cannot vote in polls in this forum
You cannot attach files in this forum
You cannot download files in this forum