Today is a free download without charge Download

Гремящий гром / Rolling Thunder (1977) BDRip [720p] ATV

Reply to topic
 
Author
Message

UndegraundMen ®

Longevity: 7 years 11 months

Posts: 25145

Торрент-статистика

Post 02-Apr-2013 00:01

[Quote]

Гремящий гром / Rolling Thunder (1977) BDRip [720p] ATV
«Major Charles Rane Is Coming Home To War!»
- Общая информация
Русское название: Гремящий гром
Оригинальное название: Rolling Thunder
Год: 1977
Страна/Студия: CША / © American International Pictures (AIP)
Жанр: боевик, триллер, драма, криминал,
Продолжительность: 01:39:48
Перевод: Русский двухголосый закадровый (НТВ+), одноголосый закадровый (А. Багичев)
Субтитры: Отсутствует
Язык субтитров: Отсутствует
Навигация: по главам (с изображениями)
Рейтинг MPAA -R-Создатели и актеры
Режиссёр: Джон Флинн
Сценарий: Пол Шредер, Хейвуд Гулд
Продюсер: Лоуренс Гордон, Норман Т. Херман
В ролях: Уильям Дивэйн, Томми Ли Джонс, Линда Хэйнс, Джеймс Бест, Дэбни Коулмен, Лиза Блейк Ричардс, Люк Аскью, Лорасон Дрисколл, Джеймс Виктор, Кэсси Йэтс
Описание: Когда майор Чарлз Рейни возвращается из Вьетнама в родной Техас, его встречают как героя. Он и его друг Джонни Воден восемь лет мучились в плену. Чарли получил кадиллак с открытым верхом, пару тысяч долларов и новость о том, что его жена с другим. Взорвался Чарли после того, как бандиты отняли у него наградные, убили сына и изуродовали руку. Ребята явно не на того нарвались. Имея стальной крюк вместо руки, он вместе со своим другом Джонни загружает в свою машину целый арсенал, и они начинают методически уничтожать убийц...-
Дата мировой премьеры: 14 октября 1977
Дата российской премьеры: -
Дата выхода DVD релиза: -
Дата выхода Blu-Ray релиза: --HD 720p
Видео: H.264, 23.976 fps, ~ 9537 Кбит/сек, 1280x694 (1.85:1)
Аудио:
* ААС 2.0 127 kbps - Русский двухголосый закадровый (НТВ+)
* АС3 2.0 192 kbps - Русский двухголосый закадровый (НТВ+)
* ААС 2.0 170 kbps - Русский одноголосый закадровый (А. Багичев)
* АС3 2.0 448 kbps - Русский одноголосый закадровый (А. Багичев)
* ААС 1.0 96 kbps - Английский
* АС3 1.0 640 kbps - Английский
Субтитры:
* 3GPP Text - Отсутствует

Media Info

Код:
Общее
Полное имя : /Users/gekkas/Movies/CREATE/Rolling Thunder.1977 (HD).m4v
Формат : MPEG-4
Идентификатор кодека : M4V
Размер файла : 7,65 Гбайт
Продолжительность : 1 ч. 39 м.
Режим общего битрейта : Переменный
Общий поток : 11,0 Мбит/сек
Название фильма : Гремящий гром
Исполнитель : John Flynn
Жанр : Action & Crime
Дата записи : UTC 1977-10-14 07:00:00
Дата кодирования : UTC 2013-03-30 16:04:48
Дата пометки : UTC 2013-04-01 15:50:16
Правообладатель : © American International Pictures (AIP)
Обложка : Yes
Примечание : «Major Charles Rane Is Coming Home To War!»
sonm : Rolling Thunder
desc : Когда майор Чарлз Рейни возвращается из Вьетнама в родной Техас, его встречают как героя. Он и его друг Джонни Воден восемь лет мучились в плену. Чарли получил кадиллак с открытым верхом, пару тысяч долларов и новость о том, что его жена с другим. Вз
ldes : Когда майор Чарлз Рейни возвращается из Вьетнама в родной Техас, его встречают как героя. Он и его друг Джонни Воден восемь лет мучились в плену. Чарли получил кадиллак с открытым верхом, пару тысяч долларов и новость о том, что его жена с другим. Взорвался Чарли после того, как бандиты отняли у него наградные, убили сына и изуродовали руку. Ребята явно не на того нарвались. Имея стальной крюк вместо руки, он вместе со своим другом Джонни загружает в свою машину целый арсенал, и они начинают методически уничтожать убийц…
hdvd : 1
stik : 9
rtng : 0
cnID : 11908
xid : Apple:vendor_id:1977-11908
iTunEXTC : mpaa|R|400|
iTunMOVI :  /  /  /  /   cast /    /      /       name /       Уильям Дивэйн /      /      /       name /       Томми Ли Джонс /      /      /       name /       Линда Хэйнс /      /      /       name /       Джеймс Бест /      /      /       name /       Дэбни Коулмен /      /      /       name /       Лиза Блейк Ричардс /      /      /       name /       Люк Аскью /      /      /       name /       Лорасон Дрисколл /      /      /       name /       Джеймс Викто /      /      /       name /       р Кэсси Йэтс /      /    /   directors /    /      /       name /       Джон Флинн /      /    /   producers /    /      /       name /       Лоуренс Гордон /      /      /       name /       Норман Т. Херман /      /    /   screenwriters /    /      /       name /       Пол Шредер /      /      /       name /       Хейвуд Гулд /      /    /   studio /   © American International Pictures (AIP) /  /
Видео #1
Идентификатор : 1
Формат : AVC
Формат/Информация : Advanced Video Codec
Профиль формата : [url=mailto:[email protected]][email protected][/url]
Параметр CABAC формата : Да
Параметр ReFrames формата : 11 кадров
Идентификатор кодека : avc1
Идентификатор кодека/Информация : Advanced Video Coding
Продолжительность : 1 ч. 39 м.
Битрейт : 9537 Кбит/сек
Максимальный битрейт : 19,0 Мбит/сек
Ширина : 1280 пикселей
Высота : 694 пикселя
Соотношение сторон : 1,85:1
Режим частоты кадров : Постоянный
Частота кадров : 23,976 кадра/сек
Цветовое пространство : YUV
Субдискретизация насыщенности : 4:2:0
Битовая глубина : 8 бит
Тип развёртки : Прогрессивная
Бит/(Пиксели*Кадры) : 0.448
Размер потока : 6,65 Гбайт (87%)
Библиотека кодирования : x264 core 130 r2273kMod b3065e6
Настройки программы : cabac=1 / ref=11 / deblock=1:-3:-3 / analyse=0x3:0x113 / me=umh / subme=11 / psy=1 / fade_compensate=0.00 / psy_rd=0.95:0.10 / mixed_ref=1 / me_range=48 / chroma_me=1 / trellis=2 / 8x8dct=1 / cqm=0 / deadzone=21,11 / fast_pskip=1 / chroma_qp_offset=-3 / threads=6 / lookahead_threads=1 / sliced_threads=0 / nr=0 / decimate=1 / interlaced=0 / bluray_compat=0 / constrained_intra=0 / bframes=12 / b_pyramid=2 / b_adapt=2 / b_bias=0 / direct=3 / weightb=1 / open_gop=0 / weightp=2 / keyint=240 / keyint_min=23 / scenecut=40 / intra_refresh=0 / rc_lookahead=40 / rc=crf / mbtree=0 / crf=18.7500 / qcomp=0.75 / qpmin=0 / qpmax=69 / qpstep=4 / vbv_maxrate=50000 / vbv_bufsize=62500 / crf_max=0.0 / nal_hrd=none / ip_ratio=1.40 / pb_ratio=1.30 / aq=1:0.80
Язык : English
Дата кодирования : UTC 2013-03-30 16:04:48
Дата пометки : UTC 2013-03-30 16:07:57
Коэффициенты матрицы : BT.709
Видео #2
Идентификатор : 9
Формат : JPEG
Идентификатор кодека : jpeg
Продолжительность : 1 ч. 39 м.
Вид битрейта : Переменный
Битрейт : 943 бит/сек
Ширина : 640 пикселей
Высота : 347 пикселей
Соотношение сторон : 1,85:1
Режим частоты кадров : Переменный
Частота кадров : 0,002 кадр/сек
Минимальная частота кадров : 0,001 кадр/сек
Максимальная частота кадров : 0,003 кадр/сек
Цветовое пространство : YUV
Субдискретизация насыщенности : 4:2:0
Битовая глубина : 8 бит
Метод сжатия : С потерями
Бит/(Пиксели*Кадры) : 2.123
Размер потока : 691 Кбайт (0%)
Язык : English
Дата кодирования : UTC 2013-04-01 15:50:16
Дата пометки : UTC 2013-04-01 15:50:16
Аудио #1
Идентификатор : 2
Формат : AAC
Формат/Информация : Advanced Audio Codec
Профиль формата : LC
Идентификатор кодека : 40
Продолжительность : 1 ч. 39 м.
Вид битрейта : Переменный
Битрейт : 127 Кбит/сек
Максимальный битрейт : 165 Кбит/сек
Каналы : 2 канала
Расположение каналов : Front: L R
Частота : 48,0 КГц
Метод сжатия : С потерями
Размер потока : 90,7 Мбайт (1%)
Заголовок : AAC Russian DVO (HTB+)
Язык : Russian
Дата кодирования : UTC 2013-03-30 16:06:58
Дата пометки : UTC 2013-03-30 16:07:57
Аудио #2
Идентификатор : 3
Формат : AC-3
Формат/Информация : Audio Coding 3
Расширение режима : CM (complete main)
Параметр Endianness формата : Big
Идентификатор кодека : ac-3
Продолжительность : 1 ч. 39 м.
Вид битрейта : Постоянный
Битрейт : 192 Кбит/сек
Каналы : 2 канала
Расположение каналов : Front: L R
Частота : 48,0 КГц
Битовая глубина : 16 бит
Метод сжатия : С потерями
Размер потока : 137 Мбайт (2%)
Заголовок : AC3 Russian DVO (HTB+)
Язык : Russian
Дата кодирования : UTC 2013-03-30 16:07:01
Дата пометки : UTC 2013-03-30 16:07:57
Аудио #3
Идентификатор : 4
Формат : AAC
Формат/Информация : Advanced Audio Codec
Профиль формата : LC
Идентификатор кодека : 40
Продолжительность : 1 ч. 39 м.
Вид битрейта : Переменный
Битрейт : 169 Кбит/сек
Максимальный битрейт : 200 Кбит/сек
Каналы : 2 канала
Расположение каналов : Front: L R
Частота : 48,0 КГц
Метод сжатия : С потерями
Размер потока : 120 Мбайт (2%)
Заголовок : AAC Russian VO (A. Bagichev)
Язык : Russian
Дата кодирования : UTC 2013-03-30 16:07:14
Дата пометки : UTC 2013-03-30 16:07:57
Аудио #4
Идентификатор : 5
Формат : AC-3
Формат/Информация : Audio Coding 3
Расширение режима : CM (complete main)
Параметр Endianness формата : Big
Идентификатор кодека : ac-3
Продолжительность : 1 ч. 39 м.
Вид битрейта : Постоянный
Битрейт : 192 Кбит/сек
Каналы : 2 канала
Расположение каналов : Front: L R
Частота : 48,0 КГц
Битовая глубина : 16 бит
Метод сжатия : С потерями
Размер потока : 137 Мбайт (2%)
Заголовок : AC3 Russian VO (A. Bagichev)
Язык : Russian
Дата кодирования : UTC 2013-03-30 16:07:17
Дата пометки : UTC 2013-03-30 16:07:57
Аудио #5
Идентификатор : 6
Формат : AAC
Формат/Информация : Advanced Audio Codec
Профиль формата : LC
Идентификатор кодека : 40
Продолжительность : 1 ч. 39 м.
Вид битрейта : Переменный
Битрейт : 96,0 Кбит/сек
Максимальный битрейт : 118 Кбит/сек
Каналы : 1 канал
Расположение каналов : Front: C
Частота : 48,0 КГц
Метод сжатия : С потерями
Размер потока : 68,6 Мбайт (1%)
Заголовок : AAC English
Язык : English
Дата кодирования : UTC 2013-03-30 16:07:30
Дата пометки : UTC 2013-03-30 16:07:57
Аудио #6
Идентификатор : 7
Формат : AC-3
Формат/Информация : Audio Coding 3
Расширение режима : CM (complete main)
Параметр Endianness формата : Big
Идентификатор кодека : ac-3
Продолжительность : 1 ч. 39 м.
Вид битрейта : Постоянный
Битрейт : 640 Кбит/сек
Каналы : 1 канал
Расположение каналов : Front: C
Частота : 48,0 КГц
Битовая глубина : 16 бит
Метод сжатия : С потерями
Размер потока : 457 Мбайт (6%)
Заголовок : AC3 English
Язык : English
Дата кодирования : UTC 2013-03-30 16:07:34
Дата пометки : UTC 2013-03-30 16:07:57
Текст
Идентификатор : 8
Формат : Apple text
Идентификатор кодека : text
Продолжительность : 1 ч. 39 м.
Вид битрейта : Постоянный
Битрейт : 0 бит/сек
Размер потока : 312 байт (0%)
Язык : English
Дата кодирования : UTC 2013-04-01 15:50:05
Дата пометки : UTC 2013-04-01 15:50:05
Меню
00:00:00.000 : 00:00:00.000
00:07:35.078 : 00:07:35.078
00:17:32.634 : 00:17:32.634
00:29:03.741 : 00:29:03.741
00:36:16.507 : 00:36:16.507
00:42:44.061 : 00:42:44.061
00:48:04.672 : 00:48:04.672
00:55:59.064 : 00:55:59.064
01:04:49.760 : 01:04:49.760
01:13:17.475 : 01:13:17.475
01:22:59.182 : 01:22:59.182
01:28:37.687 : 01:28:37.687
Скриншоты:            -Тэги и обложка

Tags & Cover



Sort Name: Rolling Thunder
XID: Apple:vendor_id:1977-11908
contentID: 11908
Copyright: © American International Pictures (AIP)
Screenwriters: Пол Шредер, Хейвуд Гулд
Producers: Лоуренс Гордон, Норман Т. Херман
Director: Джон Флинн
Cast: Уильям Дивэйн, Томми Ли Джонс, Линда Хэйнс, Джеймс Бест, Дэбни Коулмен, Лиза Блейк Ричардс, Люк Аскью, Лорасон Дрисколл, Джеймс Викто, р Кэсси Йэтс
Studio: © American International Pictures (AIP)
Rating: 5
Long Description: Когда майор Чарлз Рейни возвращается из Вьетнама в родной Техас, его встречают как героя. Он и его друг Джонни Воден восемь лет мучились в плену. Чарли получил кадиллак с открытым верхом, пару тысяч долларов и новость о том, что его жена с другим. Взорвался Чарли после того, как бандиты отняли у него наградные, убили сына и изуродовали руку. Ребята явно не на того нарвались. Имея стальной крюк вместо руки, он вместе со своим другом Джонни загружает в свою машину целый арсенал, и они начинают методически уничтожать убийц…
Description: Когда майор Чарлз Рейни возвращается из Вьетнама в родной Техас, его встречают как героя. Он и его друг Джонни Воден восемь лет мучились в плену. Чарли получил кадиллак с открытым верхом, пару тысяч долларов и новость о том, что его жена с другим. Вз
Release Date: 1977-10-14T07:00:00Z
Genre: Action & Crime
Comments: «Major Charles Rane Is Coming Home To War!»
Artist: John Flynn
Name: Гремящий гром

Thx

За исходник спасибо: HDclub
-

Релиз подготовлен для просмотра на Apple TV, iPad.
Для просмотра данного релиза на компьютере с ОС Windows рекомендуется использовать VLC media player.
Other forum [Profile] [PM]
Display posts from previous:    
Reply to topic

The time now is: Today 14:50

All times are GMT + 3 Hours



You cannot post new topics in this forum
You cannot reply to topics in this forum
You cannot edit your posts in this forum
You cannot delete your posts in this forum
You cannot vote in polls in this forum
You cannot attach files in this forum
You cannot download files in this forum