Today is a free download without charge Download

Долгая помолвка / Un long dimanche de fiancailles (Жан-Пьер Жёне) [2004 г., драма, мелодрама, детектив, военный, BDRip720P]

Reply to topic
 
Author
Message

Delia ®

Gender:

Longevity: 9 years 6 months

Posts: 1821

Торрент-статистика

Post 10-Jul-2011 22:31

[Quote]

Долгая помолвкаUn long dimanche de fiancailles Год выпуска: 2004
Страна: США, Франция
Жанр: драма, мелодрама, детектив, военный
Продолжительность: 02:13:11
Перевод: Профессиональный (полное дублирование)
Режиссер: Жан-Пьер Жёне
Продюссер: Жан-Пьер Жёне, Френсис Бьеспфлуг, Билл Гербер
Сценарий: Себастьян Жапризо, Жан-Пьер Жёне, Гийом Лоран
Бюджет: $56 600 000
Премьера в мире: 27 октября 2004
В ролях: Одри Тоту, Гаспар Ульель, Доминик Пинон, Шанталь Нойвирт, Андре Дюссолье, Тикки Ольгадо, Марион Котийяр, Доминик Беттенфельд, Джоди Фостер, Жан-Пьер Дарруссен
Описание:Главная героиня фильма — французская девушка Матильда, живущая в провинции и пытающаяся узнать всю правду об исчезновении ее жениха Манека, пропавшего без вести во время Первой мировой войны. Согласно официальным данным, он был в числе пятерых солдат, осужденных за самострел военным трибуналом и отправленных по его приговору на верную смерть. В результате все они погибли. Но однажды Матильда получает письмо, которое заставляет ее усомниться в гибели Манека и отправиться на его поиски...
Качество: BDRip720p
Формат: MKV
Видео кодек: H.264
Аудио кодек: AC3
Видео: English, 3654 Кбит/сек, 1280*544 (2,35:1), в 24,000 кадр/сек, AVC ([email protected])
Аудио: Russian, 448 Кбит/сек, 48,0 КГц, 16 бит, 6 канала(ов), AC-3
Аудио:French , 320 Кбит/сек, 48,0 КГц, 16 бит, 6 канала(ов), AC-3
Субтитры:Russian, English - VobSub

MI:

Общее
Уникальный идентификатор : 223195355059705925716233468272276580425 (0xA7E9DC9D561E0D6BB553106C482EA849)
Полное имя : F:\торрент\Dolgaya.Pomolvka.2004.BDRip720р.mkv
Формат : Matroska
Размер файла : 4,20 Гбайт
Продолжительность : 2 ч. 13 м.
Общий поток : 4511 Кбит/сек
Дата кодирования : UTC 2011-07-10 18:13:06
Программа кодирования : mkvmerge v4.8.0 ('I Got The...') built on May 24 2011 03:12:58
Библиотека кодирования : libebml v1.2.0 + libmatroska v1.1.0
Видео
Идентификатор : 1
Формат : AVC
Формат/Информация : Advanced Video Codec
Профиль формата : [email protected]
Параметр CABAC формата : Да
Параметр ReFrames формата : 10 кадры
Идентификатор кодека : V_MPEG4/ISO/AVC
Продолжительность : 2 ч. 13 м.
Битрейт : 3654 Кбит/сек
Ширина : 1280 пикс.
Высота : 544 пикс.
Соотношение сторон : 2,35:1
Частота кадров : 24,000 кадр/сек
Цветовое пространство : YUV
Подвыборка цветности : 4:2:0
Битовая глубина : 8 бит
Тип развёртки : Прогрессивная
Бит/(Пиксели*Кадры) : 0.219
Размер потока : 3,40 Гбайт (81%)
Библиотека кодирования : x264 core 115 r2008 4c552d8
Настройки программы : cabac=1 / ref=10 / deblock=1:-2:-1 / analyse=0x3:0x133 / me=tesa / subme=10 / psy=1 / psy_rd=1.00:0.00 / mixed_ref=1 / me_range=32 / chroma_me=1 / trellis=2 / 8x8dct=1 / cqm=0 / deadzone=21,11 / fast_pskip=0 / chroma_qp_offset=-2 / threads=6 / sliced_threads=0 / nr=0 / decimate=1 / interlaced=0 / bluray_compat=0 / constrained_intra=0 / bframes=8 / b_pyramid=2 / b_adapt=2 / b_bias=0 / direct=1 / weightb=1 / open_gop=0 / weightp=2 / keyint=250 / keyint_min=24 / scenecut=40 / intra_refresh=0 / rc_lookahead=60 / rc=crf / mbtree=1 / crf=17.8 / qcomp=0.60 / qpmin=0 / qpmax=69 / qpstep=4 / ip_ratio=1.40 / aq=1:1.00
Язык : English
Аудио #1
Идентификатор : 2
Формат : AC-3
Формат/Информация : Audio Coding 3
Расширение режима : CM (complete main)
Идентификатор кодека : A_AC3
Продолжительность : 2 ч. 13 м.
Вид битрейта : Постоянный
Битрейт : 448 Кбит/сек
Канал(ы) : 6 канала(ов)
Расположение каналов : Front: L C R, Side: L R, LFE
Частота : 48,0 КГц
Битовая глубина : 16 бит
Метод сжатия : С потерями
Размер потока : 427 Мбайт (10%)
Язык : Russian
Аудио #2
Идентификатор : 3
Формат : AC-3
Формат/Информация : Audio Coding 3
Расширение режима : CM (complete main)
Идентификатор кодека : A_AC3
Продолжительность : 2 ч. 13 м.
Вид битрейта : Постоянный
Битрейт : 320 Кбит/сек
Канал(ы) : 6 канала(ов)
Расположение каналов : Front: L C R, Side: L R, LFE
Частота : 48,0 КГц
Битовая глубина : 16 бит
Метод сжатия : С потерями
Размер потока : 305 Мбайт (7%)
Язык : French
Текст #1
Идентификатор : 4
Формат : VobSub
Режим смешивания : zlib
Идентификатор кодека : S_VOBSUB
Идентификатор кодека/Информация : The same subtitle format used on DVDs
Язык : Russian
Текст #2
Идентификатор : 5
Формат : VobSub
Режим смешивания : zlib
Идентификатор кодека : S_VOBSUB
Идентификатор кодека/Информация : The same subtitle format used on DVDs
Язык : English
Меню
00:00:00.000 : en:00:00:00.000
00:01:33.415 : en:00:01:33.415
00:04:15.000 : en:00:04:15.000
00:05:41.582 : en:00:05:41.582
00:07:14.083 : en:00:07:14.083
00:09:16.625 : en:00:09:16.625
00:13:09.666 : en:00:13:09.666
00:16:15.707 : en:00:16:15.707
00:18:05.000 : en:00:18:05.000
00:20:06.415 : en:00:20:06.415
00:22:42.250 : en:00:22:42.250
00:25:31.375 : en:00:25:31.375
00:27:45.165 : en:00:27:45.165
00:29:11.750 : en:00:29:11.750
00:33:17.000 : en:00:33:17.000
00:37:25.083 : en:00:37:25.083
00:40:19.291 : en:00:40:19.291
00:44:59.000 : en:00:44:59.000
00:45:59.375 : en:00:45:59.375
00:47:30.000 : en:00:47:30.000
00:49:09.000 : en:00:49:09.000
00:53:54.000 : en:00:53:54.000
00:57:19.625 : en:00:57:19.625
01:06:02.541 : en:01:06:02.541
01:10:41.000 : en:01:10:41.000
01:12:54.750 : en:01:12:54.750
01:14:35.457 : en:01:14:35.457
01:15:41.375 : en:01:15:41.375
01:24:14.791 : en:01:24:14.791
01:27:16.375 : en:01:27:16.375
01:30:29.375 : en:01:30:29.375
01:32:28.582 : en:01:32:28.582
01:35:32.582 : en:01:35:32.582
01:40:04.666 : en:01:40:04.666
01:44:49.375 : en:01:44:49.375
01:53:29.791 : en:01:53:29.791
01:57:35.791 : en:01:57:35.791
02:01:58.457 : en:02:01:58.457
02:06:18.375 : en:02:06:18.375

Скриншоты

               

_________________
Человек – это канат, натянутый между животным и сверхчеловеком, – канат над пропастью.
В человеке ценно то, что он мост, а не цель. Фридрих Ницше


Last edited by Delia on 2011-08-26 17:50; edited 1 time in total
Other forum [Profile] [PM]
Display posts from previous:    
Reply to topic

The time now is: Today 09:33

All times are GMT + 3 Hours



You cannot post new topics in this forum
You cannot reply to topics in this forum
You cannot edit your posts in this forum
You cannot delete your posts in this forum
You cannot vote in polls in this forum
You cannot attach files in this forum
You cannot download files in this forum