Today is a free download without charge Download

Кроличья нора / Rabbit Hole (Джон Кэмерон Митчелл / John Cameron Mitchell) [2010, США, Драма, BDRip 1080p] Dub (R5) + AVO (Ю.Сербин) + Sub (Rus, Eng) + Original Eng

Reply to topic
 
Author
Message

Omen ®

Longevity: 8 years 5 months

Posts: 181087

Торрент-статистика

Post 01-Apr-2013 17:16

[Quote]

Кроличья нора / Rabbit Hole«Love will get you through.» Страна: США
Жанр: Драма
Год выпуска: 2010
Продолжительность: 01:31:28
Перевод: Профессиональный (дублированный) R5
Перевод 2: Авторский (одноголосый закадровый) Ю.Сербин
Cубтитры: русские R5, английские
Оригинальная аудиодорожка: английский
Режиссер: Джон Кэмерон Митчелл / John Cameron Mitchell
В ролях: Николь Кидман, Аарон Экхарт, Дайэнн Уист, Майлз Теллер, Тэмми Бланчард, Сандра О, Джанкарло Эспозито, Джон Тенни, Стефен Мэйлер, Майк Дойл...
Описание: Восемь месяцев назад в семье Хауи и Бекки Корбетт произошла страшная трагедия - погиб их маленький сын. От ее последствий супруги не могут оправиться до сих пор. Каждый по-своему пытается восстановить душевный покой: Хауи играет в сквош с друзьями, Бекка проводит целые дни у плиты, оба ищут поддержки в группах психологической взаимопомощи.
Но время идет, а все усилия остаются тщетными. Брак трещит по швам, отношения с родными напряжены до предела, круг общения сокращается на глазах. Парадоксальным образом, луч надежды пробивает пелену безнадежности, когда судьба сводит Бекку с невольным виновником их несчастий - юным автором комиксов Джейсоном. Вместе героям предстоит понять, затягиваются ли раны прошлого хоть когда-нибудь...

Тип релиза: BDRip 1080p
Контейнер: MKV
Видео: MPEG-4 AVC Video, 1920x1080 at 23.976 fps, [email protected], 2pass, ~11000 kbps avg
Аудио: 48 kHz, DTS, 3/2 (L,C,R,l,r) + LFE ch, ~1536.00 kbps avg |Одноголосый закадровый, Ю.Сербин|
Аудио 2: 48 kHz, DTS, 3/2 (L,C,R,l,r) + LFE ch, ~1536.00 kbps avg |Дубляж, R5|
Аудио 3: 48 kHz, DTS, 3/2 (L,C,R,l,r) + LFE ch, ~1536.00 kbps avg
Аудио 4: 48 kHz, AC3, 2/0 (L,R) ch, ~384 kbps avg |Commentary|
Доп. информация:
  • Сохранены оригинальные чаптеры как на Blu-ray.
  • За работу над дорогой с переводом Ю.Сербина большое спасибо Diablo.
  • Номинация на премию «Оскар» за Лучшую женскую роль (Николь Кидман), 2011г.
  • За пьесу, по которой поставлен фильм, автор сценария Дэвид Линдси-Эбейр получил Пулитцеровскую премию.

Цитата

«Николь. Год за годом ты играешь замечательно. Ты показываешь свои грани в самой чистой форме. Многие считают, что твоя лучшая роль - это самый свежий фильм «Кроличья нора», роль Бекки»,
Джефф Бриджес, с 83-й ежегодной церемонии вручения кинопремии «Оскар» в переводе Ю.Сербина и А.Гаврилова.

MediaInfo

Общее
Уникальный идентификатор : 217221517410099836128376266712905422714 (0xA36B57ADB8C88C5295402049BB08177A)
Полное имя : D:\torrent\Кроличья нора BDRip 1080p.mkv
Формат : Matroska
Версия формата : Version 2
Размер файла : 10,2 Гбайт
Продолжительность : 1 ч. 31 м.
Общий поток : 15,9 Мбит/сек
Дата кодирования : UTC 2011-12-15 19:50:00
Программа кодирования : mkvmerge v5.1.0 ('And so it goes') built on Nov 28 2011 23:58:28
Библиотека кодирования : libebml v1.2.3 + libmatroska v1.3.0
Видео
Идентификатор : 1
Формат : AVC
Формат/Информация : Advanced Video Codec
Профиль формата : [email protected]
Параметр CABAC формата : Да
Параметр ReFrames формата : 4 кадра
Режим смешивания : Header stripping
Идентификатор кодека : V_MPEG4/ISO/AVC
Продолжительность : 1 ч. 31 м.
Битрейт : 11,0 Мбит/сек
Ширина : 1920 пикселей
Высота : 1080 пикселей
Соотношение сторон : 16:9
Режим частоты кадров : Постоянный
Частота кадров : 23,976 кадра/сек
Цветовое пространство : YUV
Субдискретизация насыщенности : 4:2:0
Битовая глубина : 8 бит
Тип развёртки : Прогрессивная
Бит/(Пиксели*Кадры) : 0.221
Размер потока : 6,82 Гбайт (67%)
Библиотека кодирования : x264 core 115 r1937 aa21558
Настройки программы : cabac=1 / ref=4 / deblock=1:-3:-3 / analyse=0x3:0x133 / me=tesa / subme=10 / psy=1 / psy_rd=1.00:0.00 / mixed_ref=1 / me_range=48 / chroma_me=1 / trellis=2 / 8x8dct=1 / cqm=0 / deadzone=21,11 / fast_pskip=0 / chroma_qp_offset=-2 / threads=12 / sliced_threads=0 / nr=0 / decimate=1 / interlaced=0 / bluray_compat=0 / constrained_intra=0 / bframes=7 / b_pyramid=2 / b_adapt=2 / b_bias=0 / direct=3 / weightb=1 / open_gop=0 / weightp=2 / keyint=250 / keyint_min=23 / scenecut=40 / intra_refresh=0 / rc_lookahead=60 / rc=2pass / mbtree=1 / bitrate=11000 / ratetol=1.0 / qcomp=0.60 / qpmin=0 / qpmax=69 / qpstep=4 / cplxblur=20.0 / qblur=0.5 / vbv_maxrate=40000 / vbv_bufsize=30000 / nal_hrd=none / ip_ratio=1.40 / aq=1:0.80
Язык : English
Default : Да
Forced : Нет
Аудио #1
Идентификатор : 2
Формат : DTS
Формат/Информация : Digital Theater Systems
Режим : 16
Параметр Endianness формата : Big
Режим смешивания : Header stripping
Идентификатор кодека : A_DTS
Продолжительность : 1 ч. 31 м.
Вид битрейта : Постоянный
Битрейт : 1509 Кбит/сек
Каналы : 6 каналов
Расположение каналов : Front: L C R, Side: L R, LFE
Частота : 48,0 КГц
Битовая глубина : 24 бит
Метод сжатия : С потерями
Размер потока : 987 Мбайт (9%)
Заголовок : DTS 5.1 @ 1536 kbps - Одноголосый закадровый, Ю.Сербин
Язык : Russian
Default : Да
Forced : Нет
Аудио #2
Идентификатор : 3
Формат : DTS
Формат/Информация : Digital Theater Systems
Режим : 16
Параметр Endianness формата : Big
Режим смешивания : Header stripping
Идентификатор кодека : A_DTS
Продолжительность : 1 ч. 31 м.
Вид битрейта : Постоянный
Битрейт : 1510 Кбит/сек
Каналы : 6 каналов
Расположение каналов : Front: L C R, Side: L R, LFE
Частота : 48,0 КГц
Битовая глубина : 24 бит
Метод сжатия : С потерями
Размер потока : 988 Мбайт (9%)
Заголовок : DTS 5.1 @ 1536 kbps - Дублированный, R5
Язык : Russian
Default : Нет
Forced : Нет
Аудио #3
Идентификатор : 4
Формат : DTS
Формат/Информация : Digital Theater Systems
Режим : 16
Параметр Endianness формата : Big
Режим смешивания : Header stripping
Идентификатор кодека : A_DTS
Продолжительность : 1 ч. 31 м.
Вид битрейта : Постоянный
Битрейт : 1509 Кбит/сек
Каналы : 6 каналов
Расположение каналов : Front: L C R, Side: L R, LFE
Частота : 48,0 КГц
Битовая глубина : 24 бит
Метод сжатия : С потерями
Задержка видео : 11 мс.
Размер потока : 987 Мбайт (9%)
Язык : English
Default : Нет
Forced : Нет
Аудио #4
Идентификатор : 5
Формат : AC-3
Формат/Информация : Audio Coding 3
Расширение режима : CM (complete main)
Параметр Endianness формата : Big
Режим смешивания : Header stripping
Идентификатор кодека : A_AC3
Продолжительность : 1 ч. 31 м.
Вид битрейта : Постоянный
Битрейт : 384 Кбит/сек
Каналы : 2 канала
Расположение каналов : Front: L R
Частота : 48,0 КГц
Битовая глубина : 16 бит
Метод сжатия : С потерями
Размер потока : 251 Мбайт (2%)
Заголовок : AC3 2.0 @ 384 kbps - Commentary
Язык : English
Default : Нет
Forced : Нет
Текст #1
Идентификатор : 6
Формат : UTF-8
Идентификатор кодека : S_TEXT/UTF8
Идентификатор кодека/Информация : UTF-8 Plain Text
Язык : Russian
Default : Нет
Forced : Нет
Текст #2
Идентификатор : 7
Формат : UTF-8
Идентификатор кодека : S_TEXT/UTF8
Идентификатор кодека/Информация : UTF-8 Plain Text
Язык : English
Default : Нет
Forced : Нет
Меню
00:00:00.000 : en:01. In the Garden
00:04:13.837 : en:02. Cut Off Date
00:07:42.295 : en:03. News to Share
00:11:24.767 : en:04. Group Meetings
00:19:34.924 : en:05. Seeing Him
00:24:58.288 : en:06. Stepping Out
00:34:38.910 : en:07. Just Trying to Help
00:39:10.431 : en:08. Not Too Weird
00:43:45.915 : en:09. Smells Fine
00:49:49.153 : en:10. Over the Limit
00:57:16.099 : en:11. Open House
01:04:46.549 : en:12. Door Was Open
01:09:04.432 : en:13. It Changes
01:14:28.172 : en:14. Prom Night
01:21:16.580 : en:15. Cook Out
01:24:59.803 : en:16. Then What

Скриншоты

Other forum [Profile] [PM]
Display posts from previous:    
Reply to topic

The time now is: Today 10:23

All times are GMT + 3 Hours



You cannot post new topics in this forum
You cannot reply to topics in this forum
You cannot edit your posts in this forum
You cannot delete your posts in this forum
You cannot vote in polls in this forum
You cannot attach files in this forum
You cannot download files in this forum