Сегодня идет свободное скачивание без начисления Download

Ловушка для одинокого мужчины (Алексей Коренев) [1990 г., Иронический детектив, DVDRip-AVC] [H.264]

Ответить на тему
 
Автор
Сообщение

Omen ®

Стаж: 5 лет 11 месяцев

Сообщений: 184329

Торрент-статистика

Пост 01-Апр-2013 16:04

[Цитировать]

Ловушка для одинокого мужчины - Русское название: Ловушка для одинокого мужчины
Год выпуска: 1990
Жанр: Иронический детектив
Страна: СССР
Производство: Творческое объединение развлекательного фильма (ОРФ)
Описание фильма:
Неожиданное исчезновение молодой жены вынудило главного героя обратиться в полицию. Комиссар начинает расследование, а тем временам местный кюре приводит к безутешному мужу якобы раскаявшуюся жену. Но Даниэль заявляет, что никогда прежде не видел эту женщину. Он подозревает в самозванке мошенницу, которая претендует на наследство, а в кюре — ее сообщника.
По мотиву произведения Робера Тома "В ожидании Элизабет"
Режиссер: Алексей Коренев
Сценарий: Алексей Коренев, Робер Тома
Композитор: Максим Дунаевский
Актеры: Николай Караченцов, Юрий Яковлев, Ирина Шмелева,Вениамин Смехов, Иннокентий Смоктуновский, Елена Коренева, Сергей Мигицко, Валентин Смирнитский
Продолжительность: 01:27:04
Субтитры: Отсутствуют

Премьера в СССР: декабрь 1990
Релиз на DVD: 11 ноября 2008, «Lizard Cinema Trade»
Видеокодек: MPEG-4 AVC/H.264
Битрейт видео: ~2379 Кбит/сек
Размер кадра: 720x528
Качество видео: DVDRip Полная реставрация изображения и звука от "Крупный план"
Аудиокодек: AC3 5.1
Битрейт аудио: 448 kbps

Реценция с кинопоиска от FunkyFresh:

Одна из последних..
До настоящего момента смотрел этот фильм в начале девяностых и сейчас, случайно натолкнувшись на сие произведение, не смог устоять от соблазна посмотреть на фильм глазами взрослого человека. И эти глаза сказали мне следующее:
Работа очень качественная, несмотря на очень непростой жанр, в котором очень легко перейти границу между качественной игрой и фарсом. Здесь это было, но было очень мало и от переигрывания в небольших сценах общая картина не менялась.
Яковлев без сомнения на высоте (взлетающие брови +5!). Караченцов просто крут, как всегда. Смотря на его игру всегда думается о том состоянии в котором он сейчас… Шмелева не только очень понравилась в этой роли, но и понравилась в образе сексапильной жгучей брюнетки. Смоктуновский..! Гамлет по сравнению с папашей Мерлушем просто отдыхает. Смехов в образе хитрого кюре непривычен, но очень удачен, надо признать. В общем, очень интересное, местами веселое, отечественное кино, с классными советскими актерами. Кстати, весь фильм снят в или в доме или около, но это не мешает красотам Крыма (а именно там снимался фильм) все время незримо накладывать свою солнечную печать на эту картину.
После просмотра поймал себя на мысли, что это ведь одна из последних картин советского кинематографа. Уже через пару лет снимать что то подобное будет уже или некому или не на что. А в жанре ироничного детектива с элементами пьесы и до сих пор нет ничего похожего… Жаль

10 из 10

MediaInfo:

Общее
Уникальный идентификатор : 240513020132235325792945283399259421065 (0xB4F11F6C7699181187348C21326E7989)
Полное имя : D:\Downloads\Ловушка для одинокого мужчины.mkv
Формат : Matroska
Версия формата : Version 4 / Version 2
Размер файла : 1,74 Гбайт
Продолжительность : 1 ч. 27 м.
Общий поток : 2854 Кбит/сек
Дата кодирования : UTC 2013-03-25 01:59:45
Программа кодирования : mkvmerge v6.0.0 ('Coming Up For Air') built on Jan 20 2013 09:52:00
Библиотека кодирования : libebml v1.3.0 + libmatroska v1.4.0
Видео
Идентификатор : 1
Формат : AVC
Формат/Информация : Advanced Video Codec
Профиль формата : [url=mailto:[email protected]][email protected][/url]
Параметр CABAC формата : Да
Параметр ReFrames формата : 8 кадров
Идентификатор кодека : V_MPEG4/ISO/AVC
Продолжительность : 1 ч. 27 м.
Битрейт : 2379 Кбит/сек
Ширина : 720 пикселей
Высота : 528 пикселей
Соотношение сторон : 4:3
Режим частоты кадров : Постоянный
Частота кадров : 25,000 кадров/сек
Цветовое пространство : YUV
Субдискретизация насыщенности : 4:2:0
Битовая глубина : 8 бит
Тип развёртки : Прогрессивная
Бит/(Пиксели*Кадры) : 0.250
Размер потока : 1,43 Гбайт (82%)
Заголовок : Ловушка для одинокого мужчины
Библиотека кодирования : x264 core 129 r2230 1cffe9f
Настройки программы : cabac=1 / ref=8 / deblock=1:0:0 / analyse=0x3:0x113 / me=umh / subme=9 / psy=1 / psy_rd=1.00:0.00 / mixed_ref=1 / me_range=32 / chroma_me=1 / trellis=1 / 8x8dct=1 / cqm=0 / deadzone=21,11 / fast_pskip=1 / chroma_qp_offset=-2 / threads=6 / lookahead_threads=1 / sliced_threads=0 / nr=0 / decimate=0 / interlaced=0 / bluray_compat=0 / constrained_intra=0 / bframes=3 / b_pyramid=2 / b_adapt=2 / b_bias=0 / direct=3 / weightb=1 / open_gop=0 / weightp=2 / keyint=250 / keyint_min=25 / scenecut=40 / intra_refresh=0 / rc_lookahead=40 / rc=2pass / mbtree=1 / bitrate=2379 / ratetol=25.0 / qcomp=0.60 / qpmin=10 / qpmax=51 / qpstep=4 / cplxblur=20.0 / qblur=0.5 / ip_ratio=1.40 / aq=1:1.00
Язык : Russian
Default : Да
Forced : Нет
Аудио
Идентификатор : 2
Формат : AC-3
Формат/Информация : Audio Coding 3
Расширение режима : CM (complete main)
Параметр Endianness формата : Big
Идентификатор кодека : A_AC3
Продолжительность : 1 ч. 27 м.
Вид битрейта : Постоянный
Битрейт : 448 Кбит/сек
Каналы : 6 каналов
Расположение каналов : Front: L C R, Side: L R, LFE
Частота : 48,0 КГц
Битовая глубина : 16 бит
Метод сжатия : С потерями
Задержка видео : 990 мс.
Размер потока : 279 Мбайт (16%)
Заголовок : Русский
Язык : Russian
Default : Да
Forced : Нет
Скриншоты:                    
Вне форума [Профиль] [ЛС]
Показать сообщения:    
Ответить на тему

Текущее время: Сегодня 18:24

Часовой пояс: GMT + 3



Вы не можете начинать темы
Вы не можете отвечать на сообщения
Вы не можете редактировать свои сообщения
Вы не можете удалять свои сообщения
Вы не можете голосовать в опросах
Вы не можете прикреплять файлы к сообщениям
Вы не можете скачивать файлы