Today is a free download without charge Download

Здравствуйте я ваша тетя (Виктор Титов) [1975 г., Комедия] DVD-5 (Реставрация)

Reply to topic
 
Author
Message

Omen ®

Longevity: 8 years 10 months

Posts: 181086

Торрент-статистика

Post 01-Apr-2013 15:46

[Quote]

Здравствуйте, я ваша тетя!
Название на русском: Здравствуйте, я ваша тетя!
Год выпуска: 1975
Жанр: Комедия
Описание фильма:
Одна из любимейших комедий об охотниках за приданым и настоящей любви, в которой Калягину приходится выступить в роли миллионерши донны Розы де Альвадорец, вдовы "дона Педры" из Бразилии, где "много, много диких обезьян". На руку вдовы претендуют хромой полковник Козаков и судья Джигарханян в надежде поправить материальное положение. Племянники же влюблены в двух "овечек", отвечающих им взаимностью, и затеяли они этот обман, чтобы получить родительское благословление. Потрясающая игра всех актеров, особенно замечателен образ лакея, созданный Гафтом.
Запоминающаяся музыка В. Казенина.
«Здравствуйте, я ваша тётя!» — художественный фильм по мотивам пьесы Брэндона Томаса «Тётка Чарли».
Режиссер: Виктор Титов
Актеры:
Александр Калягин, Валентин Гафт, О. Шкловский, Михаил Козаков, М. Любезнов, Т. Веденеева, Татьяна Васильева, Галина Орлова, Армен Джигарханян
Продолжительность: 1:38
Видеокодек: MPEG 2
Битрейт видео: 5025 Кбит/сек
Размер кадра: 720x576
Качество видео: DVD
Аудиокодек: AC3
Битрейт аудио:
Audio #1 (Русская) : 384 Кбит/сек 6ch
Audio #2 (Русская) : 112 Кбит/сек 1 ch

Интересные факты

- Знаменитая фраза «Я тётушка Чарли из Бразилии, где в лесах много диких обезьян» придумана режиссёром фильма Виктором Титовым. В оригинале классическая фраза тётки о Бразилии звучала как «...страна, откуда привозят орехи» (where nuts come from) и имела в виду совершенно конкретный вид «бразильского ореха», а также и каламбур, — с английского языка это можно перевести и как «страна, откуда являются придурки».
- Сама фраза «Здравствуйте, я ваша тётя!» стала популярна после фильма «Лёгкая жизнь», где её произносила Фаина Раневская.
- Исполняемая в фильме Калягиным песня «Любовь и бедность» — стихотворение Роберта Бёрнса в переводе Самуила Маршака на музыку Казенина.
- В качестве музыкальной темы полковника Френсиса Чеснея используется «Марш полковника Боуги»
- В сцене в кинотеатре в начале фильма используются отрывки следующих фильмов:
  • «Молодой Шерлок Холмс» (англ. Sherlock, Jr.) с Бастером Китоном
  • «Наконец в безопасности!» (англ. Safety Last!) с Гарольдом Ллойдом
    - В 2011 году украинский режиссёр Александр Карпенчук снял своеобразный римейк картины — фильм «Восьмая Марта».
    - Появление Эллы Делей (Татьяна Веденеева) сопровождается музыкальной темой из кинофильма «Мост Ватерлоо».

DVDInfo

Title: Здравствуйте, я Ваша тетя!
Size: 1.12 Gb ( 1 175 338,00 KBytes ) - DVD-5
Enabled regions: 1, 2, 3, 4, 5, 6
VTS_01 :
Play Length: 00:00:16
Video: PAL 4:3 (720x576) VBR
VTS_02 :
Play Length: 00:49:25+{00:49:25}
Video: PAL 4:3 (720x576) VBR
Audio:
  • Russian (Dolby AC3, 6 ch)
  • Russian (Dolby AC3, 1 ch)
    VTS_03 :
    Play Length: 00:48:04+{00:48:04}
    Video: PAL 4:3 (720x576) VBR
    Audio:
  • Russian (Dolby AC3, 6 ch)
  • Russian (Dolby AC3, 1 ch)
    * Menus Information *
    VIDEO_TS Menu
    Video:
  • PAL 4:3 (720x576) VBR
    English Language Unit :
  • Title Menu
    VTS_01 Menu
    Video:
  • PAL 4:3 (720x576) VBR
    Audio:
  • Not specified (Dolby AC3, 2 ch)
    English Language Unit :
  • Root Menu
    VTS_02 Menu
    Video:
  • PAL 4:3 (720x576) VBR
    English Language Unit :
  • Root Menu
  • Audio Menu
  • Chapter (PTT) Menu
    VTS_03 Menu
    Video:
  • PAL 4:3 (720x576) VBR
    English Language Unit :
  • Root Menu
  • Audio Menu
  • Chapter (PTT) Menu

MediaInfo

Общее
Полное имя : C:\Users\Slave-Win7\Desktop\Здравствуйте, я Ваша тетя!\VTS_02_1.VOB
Формат : MPEG-PS
Размер файла : 1024 Мбайт
Продолжительность : 25 м.
Общий поток : 5633 Кбит/сек
Видео
Идентификатор : 224 (0xE0)
Формат : MPEG Video
Версия формата : Version 2
Профиль формата : [email protected]
Параметр BVOP формата : Да
Параметр матрицы формата : Выборочная
Параметры GOP формата : M=3, N=15
Продолжительность : 25 м.
Вид битрейта : Переменный
Битрейт : 5025 Кбит/сек
Номинальный битрейт : 9000 Кбит/сек
Ширина : 720 пикс.
Высота : 576 пикс.
Соотношение сторон : 4:3
Частота кадров : 25,000 кадр/сек
Стандарт вещания : PAL
Цветовое пространство : YUV
Подвыборка цветности : 4:2:0
Битовая глубина : 8 бит
Тип развёртки : Чересстрочная
Порядок развёртки : Верхнее поле первое
Метод сжатия : С потерями
Бит/(Пиксели*Кадры) : 0.485
Размер потока : 913 Мбайт (89%)
Аудио #1
Идентификатор : 189 (0xBD)-128 (0x80)
Формат : AC-3
Формат/Информация : Audio Coding 3
Расширение режима : CM (complete main)
Режим смешивания : DVD-Video
Продолжительность : 25 м.
Вид битрейта : Постоянный
Битрейт : 384 Кбит/сек
Каналы : 6 каналов
Расположение каналов : Front: L C R, Side: L R, LFE
Частота : 48,0 КГц
Битовая глубина : 16 бит
Метод сжатия : С потерями
Задержка видео : -80 мс.
Размер потока : 69,8 Мбайт (7%)
Аудио #2
Идентификатор : 189 (0xBD)-129 (0x81)
Формат : AC-3
Формат/Информация : Audio Coding 3
Расширение режима : CM (complete main)
Режим смешивания : DVD-Video
Продолжительность : 25 м.
Вид битрейта : Постоянный
Битрейт : 112 Кбит/сек
Каналы : 1 канал
Расположение каналов : Front: C
Частота : 48,0 КГц
Битовая глубина : 16 бит
Метод сжатия : С потерями
Задержка видео : -80 мс.
Размер потока : 20,4 Мбайт (2%)
Меню
Скриншоты:              
Other forum [Profile] [PM]
Display posts from previous:    
Reply to topic

The time now is: Today 16:09

All times are GMT + 3 Hours



You cannot post new topics in this forum
You cannot reply to topics in this forum
You cannot edit your posts in this forum
You cannot delete your posts in this forum
You cannot vote in polls in this forum
You cannot attach files in this forum
You cannot download files in this forum