Today is a free download without charge Download

Bush: Live! [2013, Alternative - Rock/Grunge, Blu-ray]

Reply to topic
 
Author
Message

Omen ®

Longevity: 8 years 4 months

Posts: 181087

Торрент-статистика

Post 01-Apr-2013 13:11

[Quote]

Bush: Live!
Жанр: Alternative - Rock/Grunge
Продолжительность: 1:24:05
Год выпуска: 2013
Лейбл: Edel Germany GmbH
Описание: The British rock band who enjoyed great success in America in the 1990s captured live in performance at the Roseland Theatre in Portland, Oregon in September 2011. This special event features one of rock’s biggest bands performing in the Portland, Oregon music hall. Known for their hits like “Glycerine” and “Swallowed”, singer Gavin Rossdale leads this power rock band that has millions of album sales since their inception nearly 20 years ago.
Gavin Rossdale - vocals/guitar;
Chris Traynor - guitar;
Corey Britz - bass;
Robin Goodridge - drums.
Tracklist:
01. Little Things
02. I Believe In You
03. Greedy Fly
04. The Sound Of Winter
05. Everything Zen
06. The Chemicals Between Us
07. All My Life
08. The People That We Love
09. All Night Doctors
10. Swallowed
11. The Afterlife
12. Machinehead
13. Alien
14. Glycerine
15. Comedown
Бонусы:
Unplugged performance at tape.tv
01. Little Things
02. The Sound Of Winter
03. Be Still my Love
04. Comedown
05. Glycerine
Music Videos
01. The Sound Of Winter
02. Baby Come Home
Доп. информация: Релиз от спасибо KAA7d
Качество: Blu-ray
Контейнер: BDMV
Видео кодек: MPEG4
Аудио кодек: DTS
Видео: MPEG4 AVC, 1920x1080i, 16:9, 22954 kbps, 29.97 fps
Аудио: DTS-HD MA, 2234 kbps, 48 kHz, 2 ch (DTS core 1509 kbps, 48 kHz, 2 ch)

BDInfo

Disc Title: BUSH_LIVE_BD_BLUEBIRDDisc Size: 23 746 944 727 bytesProtection: AACSBD-Java: YesBDInfo: 0.5.6
Notes:
BDINFO HOME: Cinema Squid http://www.cinemasquid.com/blu-ray/tools/bdinfo
INCLUDES FORUMS REPORT FOR: AVS Forum Blu-ray Audio and Video Specifications Thread http://www.avsforum.com/avs-vb/showthread.php?t=1155731
********************PLAYLIST: 01002.MPLS********************
Код:
Total   Video
Title                                                           Codec   Length  Movie Size      Disc Size       Bitrate Bitrate Main Audio Track                          Secondary Audio Track
-----                                                           ------  ------- --------------  --------------  ------- ------- ------------------                        ---------------------
01002.MPLS                                                      AVC     1:24:05 16 786 249 728  23 746 944 727  26,62   22,95   DTS-HD Master 2.0 2234Kbps (48kHz/24-bit)
Код:
DISC INFO:
Disc Title:     BUSH_LIVE_BD_BLUEBIRD
Disc Size:      23 746 944 727 bytes
Protection:     AACS
BD-Java:        Yes
BDInfo:         0.5.6
PLAYLIST REPORT:
Name:                   01002.MPLS
Length:                 1:24:05 (h:m:s)
Size:                   16 786 249 728 bytes
Total Bitrate:          26,62 Mbps
VIDEO:
Codec                   Bitrate             Description
-----                   -------             -----------
MPEG-4 AVC Video        22954 kbps          1080i / 29,970 fps / 16:9 / High Profile 4.1
AUDIO:
Codec                           Language        Bitrate         Description
-----                           --------        -------         -----------
DTS-HD Master Audio             English         2234 kbps       2.0 / 48 kHz / 2234 kbps / 24-bit (DTS Core: 2.0 / 48 kHz / 1509 kbps / 24-bit)
FILES:
Name            Time In         Length          Size            Total Bitrate
----            -------         ------          ----            -------------
00004.M2TS      0:00:00.000     1:24:04.973     16 786 237 440  26 619
00012.M2TS      1:24:04.973     0:00:00.500     12 288          196
CHAPTERS:
Number          Time In         Length          Avg Video Rate  Max 1-Sec Rate  Max 1-Sec Time  Max 5-Sec Rate  Max 5-Sec Time  Max 10Sec Rate  Max 10Sec Time  Avg Frame Size  Max Frame Size  Max Frame Time
------          -------         ------          --------------  --------------  --------------  --------------  --------------  --------------  --------------  --------------  --------------  --------------
1               0:00:00.000     0:05:27.994     24 468 kbps     42 522 kbps     00:00:21.421    32 343 kbps     00:04:30.570    31 113 kbps     00:00:12.512    102 041 bytes   330 864 bytes   00:02:56.209
2               0:05:27.994     0:03:47.961     24 238 kbps     40 354 kbps     00:06:42.802    33 548 kbps     00:08:26.105    29 843 kbps     00:08:54.700    101 091 bytes   368 756 bytes   00:08:28.074
3               0:09:15.955     0:04:55.028     22 403 kbps     41 979 kbps     00:12:55.641    34 073 kbps     00:12:53.572    30 683 kbps     00:12:48.567    93 449 bytes    326 308 bytes   00:13:42.188
4               0:14:10.983     0:03:54.968     21 337 kbps     37 128 kbps     00:15:52.217    31 897 kbps     00:15:52.217    29 478 kbps     00:15:51.216    88 992 bytes    302 805 bytes   00:16:29.355
5               0:18:05.951     0:07:44.063     24 091 kbps     40 720 kbps     00:22:01.019    33 738 kbps     00:21:59.785    31 579 kbps     00:21:22.347    100 479 bytes   357 587 bytes   00:21:32.090
6               0:25:50.015     0:05:14.981     24 169 kbps     38 766 kbps     00:28:38.349    32 843 kbps     00:28:22.767    31 088 kbps     00:29:22.393    100 807 bytes   349 516 bytes   00:28:39.818
7               0:31:04.996     0:04:15.989     21 651 kbps     36 246 kbps     00:33:39.050    32 087 kbps     00:33:36.080    29 601 kbps     00:33:29.941    90 303 bytes    359 356 bytes   00:31:16.708
8               0:35:20.985     0:04:30.003     25 939 kbps     40 562 kbps     00:38:19.430    31 556 kbps     00:36:21.412    30 702 kbps     00:39:15.586    108 187 bytes   351 511 bytes   00:38:26.704
9               0:39:50.988     0:05:10.977     20 813 kbps     35 883 kbps     00:42:21.939    31 788 kbps     00:42:20.905    29 353 kbps     00:42:16.100    86 808 bytes    294 689 bytes   00:42:22.940
10              0:45:01.965     0:06:04.030     25 546 kbps     39 722 kbps     00:49:00.704    33 404 kbps     00:48:57.000    31 362 kbps     00:48:52.062    106 547 bytes   317 866 bytes   00:46:51.475
11              0:51:05.996     0:05:13.980     24 110 kbps     38 705 kbps     00:54:16.119    32 311 kbps     00:52:10.560    29 828 kbps     00:54:16.119    100 557 bytes   301 089 bytes   00:56:18.641
12              0:56:19.976     0:05:10.043     23 718 kbps     39 858 kbps     00:57:33.883    32 740 kbps     00:58:31.407    30 039 kbps     00:56:55.145    98 922 bytes    292 060 bytes   00:56:41.297
13              1:01:30.019     0:09:29.969     20 960 kbps     39 914 kbps     01:08:12.455    33 501 kbps     01:06:31.587    30 717 kbps     01:06:31.487    87 425 bytes    327 519 bytes   01:08:14.056
14              1:10:59.989     0:05:32.999     21 605 kbps     39 743 kbps     01:14:37.573    32 512 kbps     01:14:24.159    31 032 kbps     01:14:51.854    90 109 bytes    314 377 bytes   01:16:30.218
15              1:16:32.988     0:06:17.043     23 867 kbps     36 835 kbps     01:16:41.363    32 313 kbps     01:21:23.979    30 664 kbps     01:21:23.778    99 545 bytes    312 326 bytes   01:22:18.700
16              1:22:50.031     0:01:15.442     6 186 kbps      19 435 kbps     01:24:02.570    16 840 kbps     01:23:58.533    15 235 kbps     01:23:53.762    25 825 bytes    214 442 bytes   01:24:02.470
STREAM DIAGNOSTICS:
File            PID             Type            Codec           Language                Seconds                 Bitrate                 Bytes           Packets
----            ---             ----            -----           --------                --------------          --------------          -------------   -----
00004.M2TS      4113 (0x1011)   0x1B            AVC                                     5044,907                22 957                  14 476 716 225  78 766 233
00004.M2TS      4352 (0x1100)   0x86            DTS-HD MA       eng (English)           5044,907                2 234                   1 408 976 748   8 437 869
00012.M2TS      4113 (0x1011)   0x1B            AVC                                     0,400                   135                     6 765           51
QUICK SUMMARY:
Disc Title: BUSH_LIVE_BD_BLUEBIRDDisc Size: 23 746 944 727 bytesProtection: AACSBD-Java: YesPlaylist: 01002.MPLSSize: 16 786 249 728 bytesLength: 1:24:05Total Bitrate: 26,62 MbpsVideo: MPEG-4 AVC Video / 22954 kbps / 1080i / 29,970 fps / 16:9 / High Profile 4.1Audio: English / DTS-HD Master Audio / 2.0 / 48 kHz / 2234 kbps / 24-bit (DTS Core: 2.0 / 48 kHz / 1509 kbps / 24-bit)
********************PLAYLIST: 01006.MPLS********************
Код:
Total   Video
Title                                                           Codec   Length  Movie Size      Disc Size       Bitrate Bitrate Main Audio Track                          Secondary Audio Track
-----                                                           ------  ------- --------------  --------------  ------- ------- ------------------                        ---------------------
01006.MPLS                                                      AVC     0:24:40 4 929 423 360   23 746 944 727  26,63   22,99   DTS-HD Master 2.0 2212Kbps (48kHz/24-bit)
Код:
DISC INFO:
Disc Title:     BUSH_LIVE_BD_BLUEBIRD
Disc Size:      23 746 944 727 bytes
Protection:     AACS
BD-Java:        Yes
BDInfo:         0.5.6
PLAYLIST REPORT:
Name:                   01006.MPLS
Length:                 0:24:40 (h:m:s)
Size:                   4 929 423 360 bytes
Total Bitrate:          26,63 Mbps
VIDEO:
Codec                   Bitrate             Description
-----                   -------             -----------
MPEG-4 AVC Video        22993 kbps          1080i / 29,970 fps / 16:9 / High Profile 4.1
AUDIO:
Codec                           Language        Bitrate         Description
-----                           --------        -------         -----------
DTS-HD Master Audio             English         2212 kbps       2.0 / 48 kHz / 2212 kbps / 24-bit (DTS Core: 2.0 / 48 kHz / 1509 kbps / 24-bit)
FILES:
Name            Time In         Length          Size            Total Bitrate
----            -------         ------          ----            -------------
00007.M2TS      0:00:00.000     0:06:13.740     1 245 585 408   26 662
00008.M2TS      0:06:13.740     0:03:25.972     686 057 472     26 647
00009.M2TS      0:09:39.712     0:05:09.942     1 029 924 864   26 584
00010.M2TS      0:14:49.655     0:05:53.853     1 179 359 232   26 663
00011.M2TS      0:20:43.508     0:03:56.736     788 484 096     26 645
00012.M2TS      0:24:40.245     0:00:00.500     12 288          196
CHAPTERS:
Number          Time In         Length          Avg Video Rate  Max 1-Sec Rate  Max 1-Sec Time  Max 5-Sec Rate  Max 5-Sec Time  Max 10Sec Rate  Max 10Sec Time  Avg Frame Size  Max Frame Size  Max Frame Time
------          -------         ------          --------------  --------------  --------------  --------------  --------------  --------------  --------------  --------------  --------------  --------------
1               0:00:00.000     0:06:13.740     22 987 kbps     27 437 kbps     00:06:07.433    25 654 kbps     00:06:06.432    24 770 kbps     00:06:01.394    95 877 bytes    335 261 bytes   00:00:10.810
2               0:06:13.740     0:03:25.972     22 981 kbps     27 208 kbps     00:06:34.460    25 765 kbps     00:06:16.542    24 574 kbps     00:06:15.675    95 866 bytes    318 324 bytes   00:06:30.523
3               0:09:39.712     0:05:09.942     22 998 kbps     29 666 kbps     00:09:42.682    26 119 kbps     00:09:42.515    25 624 kbps     00:09:41.581    95 932 bytes    333 301 bytes   00:09:46.619
4               0:14:49.655     0:05:53.853     23 017 kbps     27 991 kbps     00:15:10.376    25 398 kbps     00:14:55.528    24 349 kbps     00:14:51.490    96 011 bytes    322 290 bytes   00:14:56.562
5               0:20:43.508     0:03:57.237     22 968 kbps     27 637 kbps     00:22:24.076    25 151 kbps     00:20:46.278    24 516 kbps     00:20:45.844    95 823 bytes    274 773 bytes   00:20:45.377
STREAM DIAGNOSTICS:
File            PID             Type            Codec           Language                Seconds                 Bitrate                 Bytes           Packets
----            ---             ----            -----           --------                --------------          --------------          -------------   -----
00007.M2TS      4113 (0x1011)   0x1B            AVC                                     373,673                 22 991                  1 073 913 189   5 843 009
00007.M2TS      4352 (0x1100)   0x86            DTS-HD MA       eng (English)           373,673                 2 240                   104 644 552     627 760
00008.M2TS      4113 (0x1011)   0x1B            AVC                                     205,906                 22 989                  591 685 593     3 219 274
00008.M2TS      4352 (0x1100)   0x86            DTS-HD MA       eng (English)           205,906                 2 229                   57 374 672      344 739
00009.M2TS      4113 (0x1011)   0x1B            AVC                                     309,876                 23 003                  891 020 863     4 847 925
00009.M2TS      4352 (0x1100)   0x86            DTS-HD MA       eng (English)           309,876                 2 173                   84 151 856      502 473
00010.M2TS      4113 (0x1011)   0x1B            AVC                                     353,787                 23 022                  1 018 098 479   5 539 342
00010.M2TS      4352 (0x1100)   0x86            DTS-HD MA       eng (English)           353,787                 2 217                   98 057 368      587 394
00011.M2TS      4113 (0x1011)   0x1B            AVC                                     236,670                 23 023                  681 101 156     3 705 816
00011.M2TS      4352 (0x1100)   0x86            DTS-HD MA       eng (English)           236,670                 2 205                   65 241 432      390 297
00012.M2TS      4113 (0x1011)   0x1B            AVC                                     0,400                   135                     6 765           51
QUICK SUMMARY:
Disc Title: BUSH_LIVE_BD_BLUEBIRDDisc Size: 23 746 944 727 bytesProtection: AACSBD-Java: YesPlaylist: 01006.MPLSSize: 4 929 423 360 bytesLength: 0:24:40Total Bitrate: 26,63 MbpsVideo: MPEG-4 AVC Video / 22993 kbps / 1080i / 29,970 fps / 16:9 / High Profile 4.1Audio: English / DTS-HD Master Audio / 2.0 / 48 kHz / 2212 kbps / 24-bit (DTS Core: 2.0 / 48 kHz / 1509 kbps / 24-bit)
********************PLAYLIST: 01003.MPLS********************
Код:
Total   Video
Title                                                           Codec   Length  Movie Size      Disc Size       Bitrate Bitrate Main Audio Track                          Secondary Audio Track
-----                                                           ------  ------- --------------  --------------  ------- ------- ------------------                        ---------------------
01003.MPLS                                                      AVC     0:08:28 1 680 359 424   23 746 944 727  26,42   22,87   DTS-HD Master 2.0 2129Kbps (48kHz/24-bit)
Код:
DISC INFO:
Disc Title:     BUSH_LIVE_BD_BLUEBIRD
Disc Size:      23 746 944 727 bytes
Protection:     AACS
BD-Java:        Yes
BDInfo:         0.5.6
PLAYLIST REPORT:
Name:                   01003.MPLS
Length:                 0:08:28 (h:m:s)
Size:                   1 680 359 424 bytes
Total Bitrate:          26,42 Mbps
VIDEO:
Codec                   Bitrate             Description
-----                   -------             -----------
MPEG-4 AVC Video        22870 kbps          1080p / 23,976 fps / 16:9 / High Profile 4.1
AUDIO:
Codec                           Language        Bitrate         Description
-----                           --------        -------         -----------
DTS-HD Master Audio             English         2129 kbps       2.0 / 48 kHz / 2129 kbps / 24-bit (DTS Core: 2.0 / 48 kHz / 1509 kbps / 24-bit)
FILES:
Name            Time In         Length          Size            Total Bitrate
----            -------         ------          ----            -------------
00005.M2TS      0:00:00.000     0:03:36.616     717 441 024     26 496
00006.M2TS      0:03:36.616     0:04:51.791     962 906 112     26 400
00012.M2TS      0:08:28.407     0:00:00.500     12 288          196
CHAPTERS:
Number          Time In         Length          Avg Video Rate  Max 1-Sec Rate  Max 1-Sec Time  Max 5-Sec Rate  Max 5-Sec Time  Max 10Sec Rate  Max 10Sec Time  Avg Frame Size  Max Frame Size  Max Frame Time
------          -------         ------          --------------  --------------  --------------  --------------  --------------  --------------  --------------  --------------  --------------  --------------
1               0:00:00.000     0:03:36.616     22 922 kbps     53 510 kbps     00:02:14.167    33 869 kbps     00:01:38.431    31 825 kbps     00:01:48.141    95 604 bytes    667 668 bytes   00:02:14.701
2               0:03:36.616     0:04:52.291     22 831 kbps     39 380 kbps     00:07:34.812    32 986 kbps     00:07:32.185    31 497 kbps     00:07:47.033    119 015 bytes   441 628 bytes   00:08:26.697
STREAM DIAGNOSTICS:
File            PID             Type            Codec           Language                Seconds                 Bitrate                 Bytes           Packets
----            ---             ----            -----           --------                --------------          --------------          -------------   -----
00005.M2TS      4113 (0x1011)   0x1B            AVC                                     216,550                 22 929                  620 659 024     3 376 930
00005.M2TS      4352 (0x1100)   0x86            DTS-HD MA       eng (English)           216,550                 2 148                   58 138 776      350 055
00006.M2TS      4113 (0x1011)   0x1B            AVC                                     291,708                 22 877                  834 168 347     4 537 569
00006.M2TS      4352 (0x1100)   0x86            DTS-HD MA       eng (English)           291,708                 2 119                   77 284 260      464 555
00012.M2TS      4113 (0x1011)   0x1B            AVC                                     0,400                   135                     6 765           51
QUICK SUMMARY:
Disc Title: BUSH_LIVE_BD_BLUEBIRDDisc Size: 23 746 944 727 bytesProtection: AACSBD-Java: YesPlaylist: 01003.MPLSSize: 1 680 359 424 bytesLength: 0:08:28Total Bitrate: 26,42 MbpsVideo: MPEG-4 AVC Video / 22870 kbps / 1080p / 23,976 fps / 16:9 / High Profile 4.1Audio: English / DTS-HD Master Audio / 2.0 / 48 kHz / 2129 kbps / 24-bit (DTS Core: 2.0 / 48 kHz / 1509 kbps / 24-bit)

Скриншоты


Скриншоты бонус

Other forum [Profile] [PM]
Display posts from previous:    
Reply to topic

The time now is: Today 08:56

All times are GMT + 3 Hours



You cannot post new topics in this forum
You cannot reply to topics in this forum
You cannot edit your posts in this forum
You cannot delete your posts in this forum
You cannot vote in polls in this forum
You cannot attach files in this forum
You cannot download files in this forum