Today is a free download without charge Download

Большой Джим / Big Jim (Кристиан Мере-Пальмир / Christian Merret-Palmair) [2010, Франция, Бельгия, Комедия, HDTV 1080i] DVO (Нью Медиа)

Reply to topic
 
Author
Message

Omen ®

Longevity: 8 years 5 months

Posts: 181087

Торрент-статистика

Post 01-Apr-2013 09:07

[Quote]

Большой Джим / Big Jim
Страна: Франция, Бельгия
Студия: AT-Production, LM Productions
Жанр: Комедия
Год выпуска: 2010
Продолжительность: 01:33:13
Перевод: Профессиональный (двухголосый закадровый) Нью Медиа
Cубтитры: нет
Оригинальная аудиодорожка: нет
Режиссер: Кристиан Мере-Пальмир / Christian Merret-Palmair
В ролях: Бруно Саломон, Филипп Дюкен, Доминик Лабурье, Джонатан Джосс, Эдит Ле Мерди, Грегори Гатиньоль, Джордж Агиляр, Катрин Шаррье.
Описание: Александр Телье, 38 - летний безработный финансовый аналитик, в один прекрасный день получает известие, что является наследником свинофермы, оставленной ему в наследство отцом. Однако чтобы вступить в наследство, ему придется выполнить одно условие - нужно чтобы свинья под кличкой "Большой Джим" победила на конкурсе свиней...
Александр берется за это дело без энтузиазма, но в конце концов понимает, что только там, среди нелегкого фермерского быта, он может найти не только свое призвание, но и свою любовь....

Тип релиза: HDTV 1080i
Контейнер: TS
Видео: AVC 1920x1080 (16:9) 25.000fps Bit rate 6083Kbps
Аудио: Dolby AC3 48.0 KHz 2ch 192 Kbps

MediaInfo

General
ID : 1
Complete name : E:\torrent\Big_Jim.ts
Format : MPEG-TS
File size : 3.96 GiB
Duration : 1h 33mn
Overall bit rate : 6 083 Kbps
Maximum Overall bit rate : 35.5 Mbps
Video
ID : 4113 (0x1011)
Menu ID : 1 (0x1)
Format : AVC
Format/Info : Advanced Video Codec
Format profile : [email protected]
Format settings, CABAC : Yes
Format settings, ReFrames : 3 frames
Format settings, GOP : M=1, N=64
Duration : 1h 33mn
Bit rate mode : Variable
Bit rate : 5 589 Kbps
Maximum bit rate : 40.0 Mbps
Width : 1 920 pixels
Height : 1 080 pixels
Display aspect ratio : 16:9
Frame rate : 25.000 fps
Standard : Component
Color space : YUV
Chroma subsampling : 4:2:0
Bit depth : 8 bits
Scan type : Interlaced
Scan order : Top Field First
Bits/(Pixel*Frame) : 0.108
Stream size : 3.64 GiB (92%)
Color primaries : BT.709-5, BT.1361, IEC 61966-2-4, SMPTE RP177
Transfer characteristics : BT.709-5, BT.1361
Matrix coefficients : BT.709-5, BT.1361, IEC 61966-2-4 709, SMPTE RP177
Audio
ID : 4352 (0x1100)
Menu ID : 1 (0x1)
Format : AC-3
Format/Info : Audio Coding 3
Mode extension : CM (complete main)
Duration : 1h 33mn
Bit rate mode : Constant
Bit rate : 192 Kbps
Channel(s) : 2 channels
Channel positions : Front: L R
Sampling rate : 48.0 KHz
Bit depth : 16 bits
Stream size : 128 MiB (3%)

Скриншоты меню

Скриншоты

Other forum [Profile] [PM]
Similar theme
Forum Topic Author Torrent Replies Last Post
./templates/default/images/folder_dl.gif Фантастика, фэнтези, ужасы, мистика Мария Стрелова | Метро 2033: Нас больше нет (2018) [FB2] }{@R0N
1 | 0

0 | 696

1

2018-08-05 12:54
}{@R0N Latest
Display posts from previous:    
Reply to topic

The time now is: Today 01:18

All times are GMT + 3 Hours



You cannot post new topics in this forum
You cannot reply to topics in this forum
You cannot edit your posts in this forum
You cannot delete your posts in this forum
You cannot vote in polls in this forum
You cannot attach files in this forum
You cannot download files in this forum