Today is a free download without charge Download

Пакт / The Pact (Николас МакКарти / Nicholas McCarthy) [2012, США, ужасы, триллер, детектив, BDRemux 1080p] MVO (R5) + DVO (den904, DeadSno) + VO Xixidok + Original Eng + Sub (Rus / Eng / Ger)

Reply to topic
 
Author
Message

Omen ®

Longevity: 8 years 5 months

Posts: 181087

Торрент-статистика

Post 01-Apr-2013 05:04

[Quote]

Пакт / The Pact
«Some doors should never be opened.»
- Страна: США
Студия: Preferred Content
Жанр: ужасы, триллер, детектив
Год выпуска: 2012
Продолжительность: 01:28:59
Перевод:
  • Профессиональный (многоголосый, закадровый) (R5)
  • Любительский (двухголосый, закадровый) (den904, DeadSno)
  • Одноголосый, закадровый (Xixidok - по субтитрам Janetta)
Cубтитры: русские, английские, английские (SDH), немецкие
Оригинальная аудиодорожка: английский-Режиссер: Николас МакКарти / Nicholas McCarthy
В ролях: Кейти Лотц, Кэтлин Роуз Перкинс, Хейли Хадсон, Сэмюэл Болл, Марк Стегер-Описание: После смерти матери сестры Николь и Энни неохотно возвращаются в дом своего детства. Во время пребывания там, ночью, сестры чувствуют таинственное присутствие чего-то или кого-то: пугающий шум, движение объектов. Девушкам предстоит пережить несколько часов кошмара, чтобы узнать об ужасном прошлом их матери…
- -Тип релиза: BDRemux 1080p
Контейнер: MKV
Видео: MPEG-4 AVC Video / 29829 kbps / 1080p / 23,976 fps / 16:9 / High Profile 4.1
Аудио #1: Russian: 48 kHz, AC3, 3/2 (L,C,R,l,r) + LFE ch, ~448.00 kbps avg - [MVO, R5]
Аудио #2: Russian: 48 kHz, AC3, 3/2 (L,C,R,l,r) + LFE ch, ~384.00 kbps avg - [DVO (den904, DeadSno)]
Аудио #3: Russian: 48 kHz, AC3, 2/0 (L,R), ~128.00 kbps avg - [VO Xixidok]
Аудио #4: English: DTS-HD Master Audio 5.1 / (48 kHz / 1906 kbps / 16-bit) (DTS Core: 5.1 / 48 kHz / 1509 kbps / 16-bit) - [Original]
Аудио #5: English: 48 kHz, DTS, 2/0 (L,R), ~384.00 kbps avg - [Commentary]
Формат субтитров: softsub (SRT)
Чаптеры: Сохранены оригинальные чаптеры с Blu-Ray
-

Скриншоты



-

MediaInfo

Код:
Format                                   : Matroska
Format version                           : Version 2
File size                                : 20.6 GiB
Duration                                 : 1h 29mn
Overall bit rate mode                    : Variable
Overall bit rate                         : 33.0 Mbps
Movie name                               : Arifis for GORESEWAGE
Encoded date                             : UTC 2013-03-30 15:21:09
Writing application                      : mkvmerge v5.2.1 ('A Far Off Place') built on Jan  2 2012 23:21:10
Writing library                          : libebml v1.2.3 + libmatroska v1.3.0
Video
ID                                       : 1
Format                                   : AVC
Format/Info                              : Advanced Video Codec
Format profile                           : [email protected]
Format settings, CABAC                   : Yes
Format settings, ReFrames                : 4 frames
Codec ID                                 : V_MPEG4/ISO/AVC
Duration                                 : 1h 29mn
Bit rate mode                            : Variable
Maximum bit rate                         : 36.0 Mbps
Width                                    : 1 920 pixels
Height                                   : 1 080 pixels
Display aspect ratio                     : 16:9
Frame rate mode                          : Constant
Frame rate                               : 23.976 fps
Color space                              : YUV
Chroma subsampling                       : 4:2:0
Bit depth                                : 8 bits
Scan type                                : Progressive
Title                                    : The Pact (Arifis for GORESEWAGE)
Default                                  : Yes
Forced                                   : No
Audio #1
ID                                       : 2
Format                                   : AC-3
Format/Info                              : Audio Coding 3
Mode extension                           : CM (complete main)
Format settings, Endianness              : Big
Codec ID                                 : A_AC3
Duration                                 : 1h 29mn
Bit rate mode                            : Constant
Bit rate                                 : 448 Kbps
Channel(s)                               : 6 channels
Channel positions                        : Front: L C R, Side: L R, LFE
Sampling rate                            : 48.0 KHz
Bit depth                                : 16 bits
Compression mode                         : Lossy
Stream size                              : 285 MiB (1%)
Title                                    : AC3 5.1 @ 448 kbps - MVO, R5
Language                                 : Russian
Default                                  : Yes
Forced                                   : No
Audio #2
ID                                       : 3
Format                                   : AC-3
Format/Info                              : Audio Coding 3
Mode extension                           : CM (complete main)
Format settings, Endianness              : Big
Codec ID                                 : A_AC3
Duration                                 : 1h 29mn
Bit rate mode                            : Constant
Bit rate                                 : 384 Kbps
Channel(s)                               : 6 channels
Channel positions                        : Front: L C R, Side: L R, LFE
Sampling rate                            : 48.0 KHz
Bit depth                                : 16 bits
Compression mode                         : Lossy
Stream size                              : 245 MiB (1%)
Title                                    : AC3 5.1 @ 384 kbps - DVO, den904, DeadSno
Language                                 : Russian
Default                                  : No
Forced                                   : No
Audio #3
ID                                       : 4
Format                                   : AC-3
Format/Info                              : Audio Coding 3
Mode extension                           : CM (complete main)
Format settings, Endianness              : Big
Codec ID                                 : A_AC3
Duration                                 : 1h 29mn
Bit rate mode                            : Constant
Bit rate                                 : 128 Kbps
Channel(s)                               : 2 channels
Channel positions                        : Front: L R
Sampling rate                            : 48.0 KHz
Bit depth                                : 16 bits
Compression mode                         : Lossy
Stream size                              : 81.5 MiB (0%)
Title                                    : AC3 2.0 @ 128 kbps - VO, Xixidok
Language                                 : Russian
Default                                  : No
Forced                                   : No
Audio #4
ID                                       : 5
Format                                   : DTS
Format/Info                              : Digital Theater Systems
Format profile                           : MA / Core
Mode                                     : 16
Format settings, Endianness              : Big
Codec ID                                 : A_DTS
Duration                                 : 1h 29mn
Bit rate mode                            : Variable
Bit rate                                 : Unknown / 1 509 Kbps
Channel(s)                               : 6 channels
Channel positions                        : Front: L C R, Side: L R, LFE
Sampling rate                            : 48.0 KHz
Bit depth                                : 16 bits
Compression mode                         : Lossless / Lossy
Title                                    : DTS-HD MA 5.1 Original @ 1929 kbps
Language                                 : English
Default                                  : No
Forced                                   : No
Audio #5
ID                                       : 6
Format                                   : DTS
Format/Info                              : Digital Theater Systems
Mode                                     : 16
Format settings, Endianness              : Big
Codec ID                                 : A_DTS
Duration                                 : 1h 29mn
Bit rate mode                            : Constant
Bit rate                                 : 384 Kbps
Channel(s)                               : 2 channels
Channel positions                        : Front: L R
Sampling rate                            : 48.0 KHz
Bit depth                                : 16 bits
Compression mode                         : Lossy
Stream size                              : 245 MiB (1%)
Title                                    : DTS 2.0 @ 384 kbps - Commentary
Language                                 : English
Default                                  : No
Forced                                   : No
Text #1
ID                                       : 7
Format                                   : UTF-8
Codec ID                                 : S_TEXT/UTF8
Codec ID/Info                            : UTF-8 Plain Text
Title                                    : Full Rus
Language                                 : Russian
Default                                  : No
Forced                                   : No
Text #2
ID                                       : 8
Format                                   : UTF-8
Codec ID                                 : S_TEXT/UTF8
Codec ID/Info                            : UTF-8 Plain Text
Title                                    : Full Eng
Language                                 : English
Default                                  : No
Forced                                   : No
Text #3
ID                                       : 9
Format                                   : UTF-8
Codec ID                                 : S_TEXT/UTF8
Codec ID/Info                            : UTF-8 Plain Text
Title                                    : Eng SDH
Language                                 : English
Default                                  : No
Forced                                   : No
Text #4
ID                                       : 10
Format                                   : UTF-8
Codec ID                                 : S_TEXT/UTF8
Codec ID/Info                            : UTF-8 Plain Text
Title                                    : Full Ger
Language                                 : German
Default                                  : No
Forced                                   : No
Menu
00:00:00.000                             : :Chapter 01
00:09:43.583                             : :Chapter 02
00:14:56.228                             : :Chapter 03
00:25:09.424                             : :Chapter 04
00:32:13.264                             : :Chapter 05
00:39:17.438                             : :Chapter 06
00:47:19.837                             : :Chapter 07
00:54:20.173                             : :Chapter 08
01:01:38.778                             : :Chapter 09
01:10:35.231                             : :Chapter 10
01:14:57.618                             : :Chapter 11
01:25:17.028                             : :Chapter 12
-
Other forum [Profile] [PM]
Display posts from previous:    
Reply to topic

The time now is: Today 06:49

All times are GMT + 3 Hours



You cannot post new topics in this forum
You cannot reply to topics in this forum
You cannot edit your posts in this forum
You cannot delete your posts in this forum
You cannot vote in polls in this forum
You cannot attach files in this forum
You cannot download files in this forum