Today is a free download without charge Download

Фродя (2013) (серии 1-2 из 2) HDTV [1080i]

Reply to topic
 
Author
Message

UndegraundMen ®

Longevity: 8 years 9 months

Posts: 25145

Торрент-статистика

Post 01-Apr-2013 00:07

[Quote]

Фродя (2013) (серии 1-2 из 2) HDTV [1080i]- Русское название: Фродя
Производство: "Медиапрофсоюз"
Год выпуска: 2013
Жанр: Мелодрама
Режиссер: Алина Чеботарева
Актеры: Ксения Кузнецова, Сергей Горобченко, Федор Гуринец, Наталья Хорохорина, Алеся Пуховая, Андрей Дебрин
Описание фильма:
В деревне все зовут ее Фродей. Полным именем — Афродита — называли лишь покойный отец да любимый Павел, с которым развела ее жизнь много лет назад. Приревновал он Фродю к молодому следователю, сгоряча уехал в город да там и остался.
Шли годы, уходила молодость, а в жизни Фроди не было ни дня счастья. И вот Павел вернулся, но не один: привез погостить к матери троих своих ребятишек. Вздрогнуло сердце Фроди, как будто расстались они вчера…

Дата российской премьеры: 30.03.2013
Продолжительность: 2 x ~ 01:30:00
Качество видео: HDTV
Видеокодек: AVC/H.264
Битрейт видео: ~6500 Kbps
Размер кадра: 1920x1080
Аудиокодек: AC3
Битрейт аудио: 2 ch, 192 Kbps

MediaInfo:

Код:
Общее
Уникальный идентификатор : 248184420700087390833330771282630761286 (0xBAB694AC67509C09A380830C8E3F5B46)
Полное имя : E:\DOWNLOADS\Фродя (2013) HDTV 1080\Фродя - 1 серия.mkv
Формат : Matroska
Версия формата : Version 2
Размер файла : 4,20 Гбайт
Продолжительность : 1 ч. 28 м.
Общий поток : 6803 Кбит/сек
Дата кодирования : UTC 2013-03-31 06:30:23
Программа кодирования : mkvmerge v5.6.0 ('Kenya Kane') built on Jun 29 2012 15:01:44
Библиотека кодирования : libebml v1.2.3 + libmatroska v1.3.0
Видео
Идентификатор : 1
Формат : AVC
Формат/Информация : Advanced Video Codec
Профиль формата : [url=mailto:[email protected]][email protected][/url]
Параметр CABAC формата : Да
Параметр ReFrames формата : 3 кадра
Идентификатор кодека : V_MPEG4/ISO/AVC
Продолжительность : 1 ч. 28 м.
Битрейт : 6476 Кбит/сек
Ширина : 1920 пикселей
Высота : 1080 пикселей
Соотношение сторон : 16:9
Режим частоты кадров : Постоянный
Частота кадров : 25,000 кадров/сек
Стандарт вещания : Component
Цветовое пространство : YUV
Субдискретизация насыщенности : 4:2:0
Битовая глубина : 8 бит
Тип развёртки : Чересстрочная
Порядок развёртки : Верхнее поле первое
Бит/(Пиксели*Кадры) : 0.125
Размер потока : 4,00 Гбайт (95%)
Default : Да
Forced : Нет
Основные цвета : BT.709
Характеристики трансфера : BT.709
Коэффициенты матрицы : BT.709
Аудио
Идентификатор : 2
Формат : AC-3
Формат/Информация : Audio Coding 3
Расширение режима : CM (complete main)
Параметр Endianness формата : Big
Идентификатор кодека : A_AC3
Продолжительность : 1 ч. 28 м.
Вид битрейта : Постоянный
Битрейт : 192 Кбит/сек
Каналы : 2 канала
Расположение каналов : Front: L R
Частота : 48,0 КГц
Битовая глубина : 16 бит
Метод сжатия : С потерями
Задержка видео : -40 мс.
Размер потока : 121 Мбайт (3%)
Default : Да
Forced : Нет
Скриншоты:
Other forum [Profile] [PM]
Display posts from previous:    
Reply to topic

The time now is: Today 17:07

All times are GMT + 3 Hours



You cannot post new topics in this forum
You cannot reply to topics in this forum
You cannot edit your posts in this forum
You cannot delete your posts in this forum
You cannot vote in polls in this forum
You cannot attach files in this forum
You cannot download files in this forum