Today is a free download without charge Download

Палач (2006) DVDRip [4 серии из 4]

Reply to topic
 
Author
Message

UndegraundMen ®

Longevity: 8 years 9 months

Posts: 25145

Торрент-статистика

Post 01-Apr-2013 00:07

[Quote]

Палач (2006) DVDRip [4 серии из 4]- Русское название: Палач
Год выпуска: 2006
Жанр: Драма

Дата российской премьеры: 24.04.2006
Режиссер: Сергей Белошников
Актеры: Александр Самойленко,Александра Яковлева,Ирина Апексимова,Владимир Скворцов,Константин Соловйов,Эдуард Флэров
Описание фильма:
Это история женщины, готовой ради мести компании насильников на все. На союз с «крестным отцом» мафиозного клана. На жестокие интриги и циничные преступления. Но принесет ли счастье такая месть? Месть, которая, постепенно уничтожает ее душу?
Наши дни. Москва. Преуспевающую красавицу, тридцатипятилетнюю журналистку Ольгу Драгомирову, приглашает на дачу к своим знакомым ее приятельница Света. Новые знакомые подмешивают Ольге в вино наркотик и, воспользовавшись ее состоянием, насилуют. Ольгу вывозят с дачи и бросают у дороги, надеясь, что она ничего не вспомнит. Но она помнит все.
Оправившись от шока, Ольга решает отомстить насильникам. Она нанимает убийц. Но, увидев, что начинает происходить с ее обидчиками, Ольга приходит в ужас. Она пытается остановить запущенный ею механизм насилия. Но Ольга уже не может управлять ситуацией. Адская машина мести запущена, и остановить ее почти невозможно…
Продолжительность: 4 x ~00:45
Качество видео: DVDRip
Видеокодек: Xvid
Битрейт видео: ~885 Kbps
Размер кадра: 256 Kbps
Аудиокодек: AC3
Битрейт аудио: 256 Kbps
Скриншоты:

MediaInfo

General
Complete name : D:\Luxe music and films\PALACH.avi
Format : AVI
Format/Info : Audio Video Interleave
File size : 1.37 GiB
Duration : 2h 51mn
Overall bit rate : 1 142 Kbps
Writing application : VirtualDubMod 1.5.4.1 (build 2178/release)
Writing library : VirtualDubMod build 2178/release
Video
ID : 0
Format : MPEG-4 Visual
Format profile : Advanced [email protected]
Format settings, BVOP : 1
Format settings, QPel : No
Format settings, GMC : No warppoints
Format settings, Matrix : Custom
Codec ID : XVID
Codec ID/Hint : XviD
Duration : 2h 51mn
Bit rate : 879 Kbps
Width : 624 pixels
Height : 352 pixels
Display aspect ratio : 16:9
Frame rate : 25.000 fps
Color space : YUV
Chroma subsampling : 4:2:0
Bit depth : 8 bits
Scan type : Progressive
Compression mode : Lossy
Bits/(Pixel*Frame) : 0.160
Stream size : 1.05 GiB (77%)
Writing library : XviD 1.2.0SMP (UTC 2006-01-08)
Audio
ID : 1
Format : AC-3
Format/Info : Audio Coding 3
Mode extension : CM (complete main)
Format settings, Endianness : Big
Codec ID : 2000
Duration : 2h 51mn
Bit rate mode : Constant
Bit rate : 256 Kbps
Channel(s) : 2 channels
Channel positions : Front: L R
Sampling rate : 48.0 KHz
Bit depth : 16 bits
Compression mode : Lossy
Delay relative to video : 15ms
Stream size : 314 MiB (22%)
Alignment : Split accross interleaves
Interleave, duration : 96 ms (2.40 video frames)
Interleave, preload duration : 96 ms
Language : English
Время раздачи: 17:00-22:00
Other forum [Profile] [PM]
Display posts from previous:    
Reply to topic

The time now is: Today 23:57

All times are GMT + 3 Hours



You cannot post new topics in this forum
You cannot reply to topics in this forum
You cannot edit your posts in this forum
You cannot delete your posts in this forum
You cannot vote in polls in this forum
You cannot attach files in this forum
You cannot download files in this forum