Today is a free download without charge Download

Гайд-Парк на Гудзоне / Hyde Park on Hudson (Роджер Мишелл / Roger Michell) [2012, Великобритания, драма, комедия, биография, история, BDRip 720p] Dub + Original Eng + Sub Eng

Reply to topic
 
Author
Message

Omen ®

Longevity: 8 years 5 months

Posts: 181087

Торрент-статистика

Post 31-Mar-2013 23:03

[Quote]

Гайд-Парк на Гудзоне / Hyde Park on Hudson Страна: Великобритания
Жанр: драма, комедия, биография, история
Год выпуска: 2012
Продолжительность: 01:34:19
Перевод: дублированный
Cубтитры: английские

Режиссер: Роджер Мишелл / Roger Michell
В ролях: Билл Мюррей, Лора Линни, Сэмюэл Уэст, Оливия Колман, Элизабет Марвел, Оливия Уильямс, Элизабет Уилсон, Мартин МакДугалл, Эндрю Хавилл, Элинор Брон, Нэнси Болдуин, Тим Бекманн, Гай Пол, Эбен Янг, Саманта Дэкин, Баффи Дэвис, Морган Дир, Тим Ахерн, Томми Кэмпбелл, Джефф Мэш, Кевин Миллингтон, Нелл Муни, Роберт Дж. Слэйд, Джонатан Брюэр, Кумико Кониси, Блейк Ритсон, Паркер Сойерс, Джеймс МаНил

Описание:История о романе президента США Фрэнка Делано Рузвельта с его кузиной Маргарет Стакли в 1939 году, который будет разворачиваться на фоне визита в его нью-йоркскую резиденцию британской королевской четы.

Качество видео: BDRip (720p)
Формат видео: MKV
Видео: MPEG-4 AVC, 1280x544, 23.976 fps, 5125 kbps
Аудио 1: Русский (AC3, 48 kHz, 6 ch, 448 kbps)
Аудио 2: Английский (DTS, 48 kHz, 6 ch, 1510 kbps)
Формат субтитров: softsub (SRT)

MediaInfo

Код:
Общее
Полное имя : E:VideoHyde.Park.on.Hudson.2012.D.BDRip.720p.mkv
Формат : Matroska
Версия формата : Version 2
Размер файла : 4,67 Гбайт
Продолжительность : 1 ч. 34 м.
Общий поток : 7084 Кбит/сек
Дата кодирования : UTC 2013-03-31 12:49:58
Программа кодирования : mkvmerge v6.1.0 ('Old Devil') built on Mar 2 2013 14:32:37
Библиотека кодирования : libebml v1.3.0 + libmatroska v1.4.0
Видео
Идентификатор : 1
Формат : AVC
Формат/Информация : Advanced Video Codec
Профиль формата : [email protected]
Параметр CABAC формата : Да
Параметр ReFrames формата : 11 кадров
Идентификатор кодека : V_MPEG4/ISO/AVC
Продолжительность : 1 ч. 34 м.
Битрейт : 5125 Кбит/сек
Ширина : 1280 пикселей
Высота : 544 пикселя
Соотношение сторон : 2,35:1
Режим частоты кадров : Постоянный
Частота кадров : 23,976 кадра/сек
Цветовое пространство : YUV
Субдискретизация насыщенности : 4:2:0
Битовая глубина : 8 бит
Тип развёртки : Прогрессивная
Бит/(Пиксели*Кадры) : 0.307
Размер потока : 3,29 Гбайт (70%)
Библиотека кодирования : x264 core 130 r2273 b3065e6
Настройки программы : cabac=1 / ref=11 / deblock=1:-3:-3 / analyse=0x3:0x113 / me=umh / subme=10 / psy=1 / psy_rd=1.00:0.10 / mixed_ref=1 / me_range=32 / chroma_me=1 / trellis=2 / 8x8dct=1 / cqm=0 / deadzone=21,11 / fast_pskip=0 / chroma_qp_offset=-5 / threads=12 / lookahead_threads=1 / sliced_threads=0 / nr=0 / decimate=0 / interlaced=0 / bluray_compat=0 / constrained_intra=0 / bframes=6 / b_pyramid=2 / b_adapt=2 / b_bias=0 / direct=3 / weightb=1 / open_gop=0 / weightp=2 / keyint=250 / keyint_min=23 / scenecut=40 / intra_refresh=0 / rc_lookahead=40 / rc=2pass / mbtree=0 / bitrate=5125 / ratetol=1.0 / qcomp=0.60 / qpmin=0 / qpmax=69 / qpstep=4 / cplxblur=20.0 / qblur=0.5 / vbv_maxrate=40000 / vbv_bufsize=40000 / nal_hrd=none / ip_ratio=1.40 / pb_ratio=1.30 / aq=1:0.80
Язык : English
Default : Да
Forced : Нет
Аудио #1
Идентификатор : 2
Формат : AC-3
Формат/Информация : Audio Coding 3
Расширение режима : CM (complete main)
Параметр Endianness формата : Big
Идентификатор кодека : A_AC3
Продолжительность : 1 ч. 34 м.
Вид битрейта : Постоянный
Битрейт : 448 Кбит/сек
Каналы : 6 каналов
Расположение каналов : Front: L C R, Side: L R, LFE
Частота : 48,0 КГц
Битовая глубина : 16 бит
Метод сжатия : С потерями
Размер потока : 302 Мбайт (6%)
Язык : Russian
Default : Да
Forced : Нет
Аудио #2
Идентификатор : 3
Формат : DTS
Формат/Информация : Digital Theater Systems
Режим : 16
Параметр Endianness формата : Big
Идентификатор кодека : A_DTS
Продолжительность : 1 ч. 34 м.
Вид битрейта : Постоянный
Битрейт : 1509 Кбит/сек
Каналы : 6 каналов
Расположение каналов : Front: L C R, Side: L R, LFE
Частота : 48,0 КГц
Битовая глубина : 24 бит
Метод сжатия : С потерями
Размер потока : 1018 Мбайт (21%)
Язык : English
Default : Нет
Forced : Нет
Текст
Идентификатор : 4
Формат : UTF-8
Идентификатор кодека : S_TEXT/UTF8
Идентификатор кодека/Информация : UTF-8 Plain Text
Заголовок : SDH
Язык : English
Default : Нет
Forced : Нет
x264 [info]: profile High, level 4.1
x264 [info]: frame I:958 Avg QP:14.59 size:162480
x264 [info]: frame P:29996 Avg QP:17.44 size: 55150
x264 [info]: frame B:104745 Avg QP:18.77 size: 17332

Скриншоты


Other forum [Profile] [PM]
Display posts from previous:    
Reply to topic

The time now is: Today 06:36

All times are GMT + 3 Hours



You cannot post new topics in this forum
You cannot reply to topics in this forum
You cannot edit your posts in this forum
You cannot delete your posts in this forum
You cannot vote in polls in this forum
You cannot attach files in this forum
You cannot download files in this forum