Today is a free download without charge Download

Последний наряд / The Last Detail (Хэл Эшби / Hal Ashby) [1973, США, драма, комедия, WEB-DL 720p] MVO + VO + Sub Eng + Original Eng

Reply to topic
 
Author
Message

Omen ®

Longevity: 8 years 5 months

Posts: 181087

Торрент-статистика

Post 31-Mar-2013 23:03

[Quote]

Последний наряд / The Last Detail Страна: США
Студия: Columbia Pictures Corporation, Acrobat Productions, Bright-Persky Associates
Жанр: драма, комедия
Год выпуска: 1973
Продолжительность: 01:43:59
Перевод 1: Профессиональный (многоголосый закадровый) (ТВ - 1 канал)
Перевод 2: Одноголосый закадровый
Cубтитры: английские
Оригинальная аудиодорожка: английский
Режиссер: Хэл Эшби / Hal Ashby
В ролях: Джек Николсон, Отис Янг, Рэнди Куэйд, Клифтон Джеймс, Кэрол Кейн, Майкл Мориарти, Луана Андерс, Кэтлин Миллер, Нэнси Аллен, Джерри Сальзберг, Майкл Чэпмен, Дерек МакГрат, Гилда Рэднер, Хэл Эшби
Описание: Двум офицерам военно-морского флота Билли Баддаски и Малхоллу «Мулу» поручают доставить мелкого воришку Ларри Мэдоуса в бостонскую тюрьму. По дороге они узнают, что 18-летний Ларри получил восемь лет лишения свободы за попытку украсть 40 долларов из ящика для пожертвований. Проникшись сочувствием к своему «подопечному», не успевшему насладиться всеми радостями жизни, Будовски и Малхолл решают подбодрить паренька и устроить ему незабываемый праздник…
Доп. информация:

Тип релиза: WEB-DL 720p
Контейнер: MKV
Видео: MPEG-4 AVC Video, 1280x720 / 1,78:1 (16:9) / 4012 kbps / 23,976 fps / [email protected]
Аудио 1: Russian: AC3, 1.0 ch, 192 kbps, 48 kHz | многоголосый
Аудио 2: Russian: AC3, 2.0 ch, 192 kbps, 48 kHz | одноголосый
Аудио 3: English: A_AAC (LC), 2.0 ch, 48 kHz
Формат субтитров: softsub (SRT)
Главы:

MediaInfo

Общее
Уникальный идентификатор : 179039120147378265719373635713793963621 (0x86B1AE263B1F78EC8B4E46774392B665)
Полное имя : Последний наряд 1973.WEB-DL.720p.ПМ.ЛО.Eng.mkv
Формат : Matroska
Версия формата : Version 4 / Version 2
Размер файла : 3,26 Гбайт
Продолжительность : 1 ч. 44 м.
Общий поток : 4484 Кбит/сек
Название фильма : The Last Detail (1973)
Дата кодирования : UTC 2013-03-30 19:41:59
Программа кодирования : mkvmerge v6.1.0 ('Old Devil') built on Mar 2 2013 14:32:37
Библиотека кодирования : libebml v1.3.0 + libmatroska v1.4.0
Видео
Идентификатор : 1
Формат : AVC
Формат/Информация : Advanced Video Codec
Профиль формата : [email protected]
Параметр CABAC формата : Нет
Параметр ReFrames формата : 2 кадра
Идентификатор кодека : V_MPEG4/ISO/AVC
Продолжительность : 1 ч. 44 м.
Ширина : 1280 пикселей
Высота : 720 пикселей
Соотношение сторон : 16:9
Режим частоты кадров : Постоянный
Частота кадров : 23,976 кадра/сек
Цветовое пространство : YUV
Субдискретизация насыщенности : 4:2:0
Битовая глубина : 8 бит
Тип развёртки : Прогрессивная
Язык : English
Default : Да
Forced : Нет
Основные цвета : BT.709
Характеристики трансфера : BT.709
Коэффициенты матрицы : BT.709
Аудио #1
Идентификатор : 2
Формат : AC-3
Формат/Информация : Audio Coding 3
Расширение режима : CM (complete main)
Параметр Endianness формата : Big
Идентификатор кодека : A_AC3
Продолжительность : 1 ч. 44 м.
Вид битрейта : Постоянный
Битрейт : 192 Кбит/сек
Каналы : 1 канал
Расположение каналов : Front: C
Частота : 48,0 КГц
Битовая глубина : 16 бит
Метод сжатия : С потерями
Размер потока : 143 Мбайт (4%)
Заголовок : AC3 1.0 ch 192 kbps - многоголосый (ТВ - 1 канал)
Язык : Russian
Default : Да
Forced : Нет
Аудио #2
Идентификатор : 3
Формат : AC-3
Формат/Информация : Audio Coding 3
Расширение режима : CM (complete main)
Параметр Endianness формата : Big
Идентификатор кодека : A_AC3
Продолжительность : 1 ч. 44 м.
Вид битрейта : Постоянный
Битрейт : 192 Кбит/сек
Каналы : 2 канала
Расположение каналов : Front: L R
Частота : 48,0 КГц
Битовая глубина : 16 бит
Метод сжатия : С потерями
Размер потока : 143 Мбайт (4%)
Заголовок : AC3 2.0 ch 192 kbps - одноголосый
Язык : Russian
Default : Нет
Forced : Нет
Аудио #3
Идентификатор : 4
Формат : AAC
Формат/Информация : Advanced Audio Codec
Профиль формата : LC
Идентификатор кодека : A_AAC
Продолжительность : 1 ч. 44 м.
Каналы : 2 канала
Расположение каналов : Front: L R
Частота : 48,0 КГц
Метод сжатия : С потерями
Заголовок : A_AAC (LC) 2.0ch - original
Язык : English
Default : Нет
Forced : Нет
Текст #1
Идентификатор : 5
Формат : UTF-8
Идентификатор кодека : S_TEXT/UTF8
Идентификатор кодека/Информация : UTF-8 Plain Text
Язык : English
Default : Нет
Forced : Нет
Текст #2
Идентификатор : 6
Формат : UTF-8
Идентификатор кодека : S_TEXT/UTF8
Идентификатор кодека/Информация : UTF-8 Plain Text
Заголовок : SDI Media Group
Язык : English
Default : Нет
Forced : Нет
Меню
00:00:00.000 : en:The Last Detail
00:01:10.000 : en:Buddusky
00:03:28.000 : en:Chasers
00:06:52.000 : en:Larry Meadows
00:10:25.000 : en:On the Bus
00:14:35.000 : en:On The Train
00:19:34.000 : en:Medow Bolts
00:24:49.000 : en:A meal in a booth
00:26:00.000 : en:Time for a beer
00:31:19.000 : en:The hotel room
00:42:52.000 : en:His mother's house
00:46:08.000 : en:back on the train
00:51:16.000 : en:In the head
00:53:33.000 : en:Sausage stand
00:54:42.000 : en:Hustling
00:57:17.000 : en:Nichiren Shoshu
01:01:12.000 : en:Times Square
01:03:20.000 : en:On the ice
01:04:45.000 : en:Donna
01:06:56.000 : en:The party
01:12:14.000 : en:Whole-hearted chant
01:14:03.000 : en:Train to Boston
01:17:40.000 : en:The Cat House
01:23:44.000 : en:Like a duck to water
01:27:43.000 : en:Picnic in the park
01:32:14.000 : en:Bravo.Yankee.Bye-Bye.
01:36:59.000 : en:Porstmouth
01:37:54.000 : en:Reaming the chasers

-

Скриншот с названием фильма

Other forum [Profile] [PM]
Similar theme
Forum Topic Author Torrent Replies Last Post
./templates/default/images/folder_dl.gif Современная проза, классика, поэзия Гюго Виктор - Последний день приговоренного к смерти [Алексей Ковалёнок, (ЛИ), 2013 г., 96 kbps, MP3] Omen
1 | 0

0 | 346

0

2015-02-22 15:33
Omen Latest
./templates/default/images/folder_dl.gif Компьютерная литература Михаил Пантаев | Матанализ с человеческим лицом, или Как выжить после предельного перехода. Полный курс математического анализа. Том 2 (2016) [PDF] moralis
1 | 0

0 | 3610

20

2016-03-09 21:50
moralis Latest
./templates/default/images/folder_dl.gif Справочники, энциклопедии и словари Михаил Пантаев | Матанализ с человеческим лицом, или Как выжить после предельного перехода. Полный курс математического анализа. Том 1 (2015) [PDF] moralis
1 | 0

0 | 3650

15

2016-03-09 21:51
moralis Latest
./templates/default/images/folder_dl.gif Новинки (HD|DVD|BD|WEB|TV|SAT|PDTV|-Rip) Последняя капля / On the Rocks (София Коппола) [2020 г., драма, комедия, приключения,WEB-DLRip ] DUB | Apple TV+ kilmister777
1 | 0

0 | 933

0

2020-10-27 08:35
kilmister777 Latest
Display posts from previous:    
Reply to topic

The time now is: Today 10:01

All times are GMT + 3 Hours



You cannot post new topics in this forum
You cannot reply to topics in this forum
You cannot edit your posts in this forum
You cannot delete your posts in this forum
You cannot vote in polls in this forum
You cannot attach files in this forum
You cannot download files in this forum