Today is a free download without charge Download

Виновен по подозрению / Guilty by Suspicion (Ирвин Уинклер / Irwin Winkler) [1991, Франция, США, триллер, драма, WEB-DL 720p] MVO (НТВ+) + AVO (Михалёв) + Original Eng + Subs (eng)

Reply to topic
 
Author
Message

Omen ®

Longevity: 8 years 5 months

Posts: 181087

Торрент-статистика

Post 31-Mar-2013 23:03

[Quote]

Виновен по подозрению
Guilty by Suspicion
«All it took was a whisper.»- Страна: Франция, США
Жанр: триллер, драма
Год выпуска: 1991
Продолжительность: 01:45:00-Перевод №1: Профессиональный (многоголосый закадровый) НТВ+
Перевод №2: Авторский (одноголосый закадровый) Алексей Михалёв
Субтитры: английские (SDH)
Оригинальная аудиодорожка: английская-Режиссёр: Ирвин Уинклер / Irwin Winkler
В ролях: Роберт Де Ниро (David Merrill), Аннетт Бенинг (Ruth Merrill), Джордж Уэндт (Bunny Baxter), Патриция Уэттиг (Dorothy Nolan), Сэм Уонамейкер (Felix Graff), Люк Эдвардс (Paulie Merrill), Крис Купер (Larry Nolan), Бен Пьяцца (Darryl Zanuck), Мартин Скорсезе (Joe Lesser), Барри Праймус (Bert Alan), Гейлард Сартейн (Chairman Wood), Робин Гэммел (Congressman Tavenner)
Описание: 1951 год. Проведя два года на съемках в Париже, знаменитый режиссер Дэвид Мэррилл возвращается в Голливуд, где свирепствует «охота на ведьм».
Легендарный город грез пропитан атмосферой страха и подозрений, на глазах у шокированного режиссера рушится карьера и личная жизнь его лучших друзей, а вскоре и сам Дэвид становится объектом пристального внимания агентов ФБР. Не желая быть стукачом, он попадает в «черные списки» изгоев и к своему ужасу понимает, что только покорное сотрудничество с «инквизиторами» вновь откроет для него двери студий и агентств.-
MPAA: PG-13 - Детям до 13 лет просмотр не желателен-Качество: WEB-DL 720p [Guilty By Suspicion 1991 720p WEB-DL AAC2 0 H 264-CtrlHD]
Контейнер: MKV
Видео: H.264/AVC, 1270x720 (16:9), 23.976 fps, ~4000 kbps
Аудио №1: Русский: AC3, 48 kHz, 2/0 (L, R), 192 kbps (MVO - НТВ+)
Аудио №2: Русский: AC3, 48 kHz, 2/0 (L, R), 192 kbps (AVO - А. Михалёв)
Аудио №3: Английский: AAC-LC, 48 kHz, 2/0 (L, R), ~160 kbps
Формат субтитров: softsub (SRT)
Навигация по главам: есть
-

MediaInfo

General
Complete name : J:\torrents\Guilty.By.Suspicion.1991.720p.WEB-DL.2xRus.Eng.Subs.-GNR.mkv
Format : Matroska
Format version : Version 2
File size : 3.50 GiB
Duration : 1h 45mn
Overall bit rate : 4 778 Kbps
Movie name : Guilty by Suspicion (1991) - Release for rutracker
Encoded date : UTC 2013-03-30 19:40:36
Writing application : mkvmerge v5.8.0 ('No Sleep / Pillow') built on Sep 2 2012 15:37:04
Writing library : libebml v1.2.3 + libmatroska v1.3.0
Video
ID : 1
Format : AVC
Format/Info : Advanced Video Codec
Format profile : [email protected]
Format settings, CABAC : No
Format settings, ReFrames : 2 frames
Format settings, GOP : N=1
Codec ID : V_MPEG4/ISO/AVC
Duration : 1h 45mn
Width : 1 270 pixels
Height : 720 pixels
Display aspect ratio : 16:9
Frame rate : 23.976 fps
Color space : YUV
Chroma subsampling : 4:2:0
Bit depth : 8 bits
Scan type : Progressive
Language : English
Default : Yes
Forced : No
Color primaries : BT.709-5, BT.1361, IEC 61966-2-4, SMPTE RP177
Transfer characteristics : BT.709-5, BT.1361
Matrix coefficients : BT.709-5, BT.1361, IEC 61966-2-4 709, SMPTE RP177
Audio #1
ID : 2
Format : AC-3
Format/Info : Audio Coding 3
Mode extension : CM (complete main)
Codec ID : A_AC3
Duration : 1h 45mn
Bit rate mode : Constant
Bit rate : 192 Kbps
Channel(s) : 2 channels
Channel positions : Front: L R
Sampling rate : 48.0 KHz
Bit depth : 16 bits
Compression mode : Lossy
Stream size : 144 MiB (4%)
Title : MVO - НТВ+
Language : Russian
Default : Yes
Forced : No
Audio #2
ID : 3
Format : AC-3
Format/Info : Audio Coding 3
Format profile : Dolby Digital
Mode extension : CM (complete main)
Codec ID : A_AC3
Duration : 1h 45mn
Bit rate mode : Constant
Bit rate : 192 Kbps
Channel(s) : 2 channels
Channel positions : Front: L R
Sampling rate : 48.0 KHz
Bit depth : 16 bits
Compression mode : Lossy
Stream size : 144 MiB (4%)
Title : AVO - А. Михалёв
Language : Russian
Default : No
Forced : No
Audio #3
ID : 4
Format : AAC
Format/Info : Advanced Audio Codec
Format profile : LC
Codec ID : A_AAC
Duration : 1h 45mn
Channel(s) : 2 channels
Channel positions : Front: L R
Sampling rate : 48.0 KHz
Compression mode : Lossy
Language : English
Default : No
Forced : No
Text
ID : 5
Format : UTF-8
Codec ID : S_TEXT/UTF8
Codec ID/Info : UTF-8 Plain Text
Title : SDH
Language : English
Default : No
Forced : No
Menu
00:00:00.000 : en:Foreward; Don't make me crawl.
00:03:18.000 : en:The latest from Bunny.
00:05:58.000 : en:Surprise party.
00:10:19.000 : en:Bonfire at the Nolans.
00:12:04.000 : en:The Merrils in the Morning.
00:15:02.000 : en:Zanuck's dilemma.
00:18:23.000 : en:Some kind of problem.
00:20:24.000 : en:Graff's advice.
00:25:42.000 : en:The school play.
00:28:29.000 : en:Denial; the cold shoulder.
00:30:24.000 : en:Big mistakes.
00:31:58.000 : en:The Nolans at odds.
00:35:15.000 : en:Joe Lesser's request.
00:38:45.000 : en:Angry words; closed doors.
00:44:48.000 : en:Are they gonna kill you?
00:50:07.000 : en:New York: theatre friends.
00:56:41.000 : en:The film equipment shop.
00:58:42.000 : en:Return to Los Angeles.
01:03:55.000 : en:Dinner with Dorothy; tragedy.
01:09:52.000 : en:A Western; homework.
01:13:52.000 : en:Badge in the dust.
01:15:53.000 : en:Christmas cheerless.
01:17:04.000 : en:Guilty by suspicion.
01:20:40.000 : en:You have to give them names.
01:25:05.000 : en:Temptation from Zanuck.
01:27:02.000 : en:I'm a filmmaker.
01:28:43.000 : en:The hearing.
01:40:06.000 : en:Bunny's response; Coda and End Credits.

Скриншоты

-Built with Flash Release
Other forum [Profile] [PM]
Display posts from previous:    
Reply to topic

The time now is: Today 10:27

All times are GMT + 3 Hours



You cannot post new topics in this forum
You cannot reply to topics in this forum
You cannot edit your posts in this forum
You cannot delete your posts in this forum
You cannot vote in polls in this forum
You cannot attach files in this forum
You cannot download files in this forum