Today is a free download without charge Download

Агент особого назначения / Сезон: 4 / Серии: 5-6 из 16 (Андрей Элинсон) [2013, Детектив, DVB]

Reply to topic
 
Author
Message

Omen ®

Longevity: 9 years 1 month

Posts: 181086

Торрент-статистика

Post 31-Mar-2013 14:57

[Quote]

Агент особого назначения 4
Год выпуска: 2013
Производство: "Форвард-Фильм", студия "Панорама"
Жанр: Детектив
Продолжительность: ~00:45:00
Режиссёр: Андрей Элинсон
В ролях: Сергей Перегудов, Владимир Матвеев, Михаил Трясоруков, Дмитрий Аверин, Ольга Павловец, Янина Соколовская (III), Лев Елисеев, Юрий Ковалёв, Роман Кочержевский, Зоя Буряк, Евгения Игумнова, Олег Алмазов, Елена Радевич, Семен Сытник, Тихон Жизневский, Владимир Кебин, Александр Поляков (II), Константин Анисимов, Владимир Постников, Сергей Мигицко, Сергей Кушаков, Валентин Цзин, Николай Горшков, Игорь Волков (II), Юрий Евдокимов, Александр Куйкка, Денис Зайцев, Валерий Чебурканов, Антон Сычев, Антон Юрьев, Владислав Резник
Описание: Бесчисленные подвиги Барабанова на благо отчизны, наконец, вознаграждены. Ему решено предоставить собственную комфортабельную квартиру, правда, ведомственную, но из родимой коммуналки он перебирается туда с восторгом. Одно «но» царапает душу специального агента: в своей старой квартире ему приходится оставить Шурку, соседку, с которой они прожили рядом столько лет. Но служба, есть служба...
Сэмпл: http://multi-up.com/848788
Качество: DVB
Формат: MPEG-PS
Видео кодек: MPEG2
Аудио кодек: MP2
Видео: MPEG-2; 720x576 (4:3), 25.00fps, ~4000 Kbps
Аудио: 48 kHz, 2 ch, 192 kbps, mp2

MI

Общее
Полное имя : E:\MPEG\Агент особого назначения. Сезон 4.2013.DVB.Doc66\Серия 05.mpg
Формат : MPEG-PS
Размер файла : 1,68 Гбайт
Продолжительность : 45 м.
Режим общего битрейта : Переменный
Общий поток : 5278 Кбит/сек
Библиотека кодирования : (c) 1998-2010 Womble Multimedia, Inc. / MPEG Video Wizard DVD 5.0.0.114 (01/2010) / Nov 13 2010
Видео
Идентификатор : 224 (0xE0)
Формат : MPEG Video
Версия формата : Version 2
Профиль формата : [email protected]
Параметр BVOP формата : Да
Параметр матрицы формата : Выборочная
Параметр GOP формата : M=1, N=37
Продолжительность : 45 м.
Вид битрейта : Переменный
Битрейт : 4981 Кбит/сек
Максимальный битрейт : 15,0 Мбит/сек
Ширина : 720 пикселей
Высота : 576 пикселей
Соотношение сторон : 4:3
Частота кадров : 25,000 кадров/сек
Стандарт вещания : PAL
Цветовое пространство : YUV
Субдискретизация насыщенности : 4:2:0
Битовая глубина : 8 бит
Тип развёртки : Чересстрочная
Порядок развёртки : Верхнее поле первое
Метод сжатия : С потерями
Бит/(Пиксели*Кадры) : 0.480
Размер потока : 1,58 Гбайт (94%)
Библиотека кодирования : (c) 1998-2010 Womble Multimedia, Inc. / MPEG Video Wizard DVD 5.0.0.114 (01/2010) / Nov 13 2010
Аудио
Идентификатор : 192 (0xC0)
Формат : MPEG Audio
Версия формата : Version 1
Профиль формата : Layer 2
Продолжительность : 45 м.
Вид битрейта : Постоянный
Битрейт : 192 Кбит/сек
Каналы : 2 канала
Частота : 48,0 КГц
Метод сжатия : С потерями
Размер потока : 62,5 Мбайт (4%)

Скриншоты

Внимание! Раздача ведётся путём добавления новых выпусков

Внимание! Раздача ведётся путём добавления новых серий; при каждом добавлении создаётся новый торрент. Чтобы начать докачку новой серии, пользователям необходимо сделать следующее:
(1) остановить скачивание,
(2) удалить старый торрент у себя из клиента (старые серии удалять не надо),
(3) скачать новый торрент и запустить его у себя в клиенте вместо старого, при этом указать клиенту путь в старую папку куда и должно происходить скачивание новых серий.
Ваш клиент при этом должен произвести хеширование (проверку) старой папки (если не производит сам - помогите ему сделать это), и будет докачивать только те серии которых у вас ещё нет. Старые серии при этом не удаляются, а продолжают раздаваться!
Eсли вы уже удалили старые серии, то предотвратить повторную закачку старых серий можно, сняв галочку в соответствующих местах при запуске нового торрента. По возможности, желательно не удалять старые серии как можно дольше чтобы релизёр не столько продолжал раздавать старые серии, а смог сконцентрироваться на новых.
Первых 4-х серий пока нет, увы. Но будем искать
Other forum [Profile] [PM]
Display posts from previous:    
Reply to topic

The time now is: Today 05:00

All times are GMT + 3 Hours



You cannot post new topics in this forum
You cannot reply to topics in this forum
You cannot edit your posts in this forum
You cannot delete your posts in this forum
You cannot vote in polls in this forum
You cannot attach files in this forum
You cannot download files in this forum