Today is a free download without charge Download

Студия звукозаписи «Бербериан» / Berberian Sound Studio (Питер Стриклэнд / Peter Strickland) [2012, Великобритания, ужасы, триллер, драма, BDRip 1080p] VO (Васька Куролесов) + 2xSub (Rus, Eng) + Original Eng

Reply to topic
 
Author
Message

Omen ®

Longevity: 8 years 5 months

Posts: 181087

Торрент-статистика

Post 31-Mar-2013 14:57

[Quote]

Студия звукозаписи «Бербериан» / Berberian Sound Studio
Страна: Великобритания
Жанр: ужасы, триллер, драма
Год выпуска: 2012
Продолжительность: 01:32:15
Перевод: Одноголосый закадровый Васька Куролесов
Cубтитры: русские, английские
Оригинальная аудиодорожка: английский
-
Режиссер: Питер Стриклэнд / Peter Strickland
В ролях: Тоби Джонс, Тония Сотиропулу, Сьюзи Кендалл, Козимо Фуско, Сузанна Каппельяро, Хильда Питер, Лайла Амир-Солеймани, Евгения Карузо, Чьяра Д’Анна, Лара Пармьяни
-
Описание: 1970-ые годы. Британского звукоинженера Гилдероя приглашают в Италию для записи аудио-эффектов к новому фильму. Кино, как выясняется на месте, снято в жанре ужасов, с которым Гилдерой прежде не связывался. Скромный и застенчивый специалист приступает к работе, к которой оказывается психически не готовым.

Тип релиза: BDRip 1080p
Контейнер: MKV
Видео: H264 / NTSC 16:9 / 1920x1036 (1,85:1) / 13824 kbps / 23,976 fps / 0.290 bit/pixel / [email protected]
Аудио 1: Russian / AC3 / 48 kHz / 2 Ch / 224 kbps / 16 bit / VO
Аудио 2: English / DTS / 48 kHz / 5.1 Ch / 755 kbps / 24 bit / Original
Аудио 3: English / DTS / 48 kHz / 2 Ch / 1510 kbps / 16 bit / Commentary
Формат субтитров: softsub (SRT)
Навигация по главам: есть

Доп.инфо

Лично сомневаюсь, что основная "забугорная дорога" должна именоваться как English, а не Italian. Прописал в оформлении так, как на блюрэй.ком (хотя при сборке релиза дорогу обозначил как Italian)
Английские сабы с диска только на итальянскую речь, больше нет никаких.
Скрин с названием как таковой отсутствует.

MediaInfo

Общее
Уникальный идентификатор : 251797498031258330063533450124380916438 (0xBD6E6F23AB500BA3B4EC6CB5D6F8CAD6)
Полное имя : W:\BDRip 1080p\Berberian Sound Studio.2012.BDRip.1080p.mkv
Формат : Matroska
Версия формата : Version 4 / Version 2
Размер файла : 10,5 Гбайт
Продолжительность : 1 ч. 32 м.
Общий поток : 16,3 Мбит/сек
Дата кодирования : UTC 2013-03-31 08:12:31
Программа кодирования : mkvmerge v6.1.0 ('Old Devil') built on Mar 2 2013 14:32:37
Библиотека кодирования : libebml v1.3.0 + libmatroska v1.4.0
Видео
Идентификатор : 1
Формат : AVC
Формат/Информация : Advanced Video Codec
Профиль формата : [email protected]
Параметр CABAC формата : Да
Параметр ReFrames формата : 4 кадра
Идентификатор кодека : V_MPEG4/ISO/AVC
Битрейт : 13,8 Мбит/сек
Ширина : 1920 пикселей
Высота : 1036 пикселей
Соотношение сторон : 1,85:1
Режим частоты кадров : Переменный
Частота кадров в оригинале : 23,976 кадра/сек
Цветовое пространство : YUV
Субдискретизация насыщенности : 4:2:0
Битовая глубина : 8 бит
Тип развёртки : Прогрессивная
Бит/(Пиксели*Кадры) : 0.290
Библиотека кодирования : x264 core 129 r2245 bc13772
Настройки программы : cabac=1 / ref=4 / deblock=1:-3:-3 / analyse=0x3:0x113 / me=umh / subme=11 / psy=1 / psy_rd=1.00:0.08 / mixed_ref=1 / me_range=56 / chroma_me=1 / trellis=2 / 8x8dct=1 / cqm=0 / deadzone=21,11 / fast_pskip=0 / chroma_qp_offset=-3 / threads=36 / lookahead_threads=6 / sliced_threads=0 / nr=0 / decimate=1 / interlaced=0 / bluray_compat=0 / constrained_intra=0 / bframes=8 / b_pyramid=2 / b_adapt=2 / b_bias=0 / direct=3 / weightb=1 / open_gop=0 / weightp=2 / keyint=240 / keyint_min=23 / scenecut=40 / intra_refresh=0 / rc_lookahead=240 / rc=2pass / mbtree=1 / bitrate=13824 / ratetol=1.0 / qcomp=0.60 / qpmin=0 / qpmax=69 / qpstep=4 / cplxblur=20.0 / qblur=0.5 / vbv_maxrate=50000 / vbv_bufsize=50000 / nal_hrd=none / ip_ratio=1.40 / aq=1:1.00
Язык : English
Default : Да
Forced : Нет
Основные цвета : BT.709
Характеристики трансфера : BT.709
Коэффициенты матрицы : BT.709
Аудио #1
Идентификатор : 2
Формат : AC-3
Формат/Информация : Audio Coding 3
Расширение режима : CM (complete main)
Параметр Endianness формата : Big
Идентификатор кодека : A_AC3
Продолжительность : 1 ч. 32 м.
Вид битрейта : Постоянный
Битрейт : 224 Кбит/сек
Каналы : 2 канала
Расположение каналов : Front: L R
Частота : 48,0 КГц
Битовая глубина : 16 бит
Метод сжатия : С потерями
Размер потока : 148 Мбайт (1%)
Заголовок : VO
Язык : Russian
Default : Да
Forced : Нет
Аудио #2
Идентификатор : 3
Формат : DTS
Формат/Информация : Digital Theater Systems
Идентификатор кодека : A_DTS
Продолжительность : 1 ч. 32 м.
Вид битрейта : Постоянный
Битрейт : 755 Кбит/сек
Каналы : 6 каналов
Расположение каналов : Front: L C R, Side: L R, LFE
Частота : 48,0 КГц
Битовая глубина : 24 бит
Метод сжатия : С потерями
Размер потока : 498 Мбайт (5%)
Заголовок : Original
Язык : Italian
Default : Нет
Forced : Нет
Аудио #3
Идентификатор : 4
Формат : DTS
Формат/Информация : Digital Theater Systems
Идентификатор кодека : A_DTS
Продолжительность : 1 ч. 32 м.
Вид битрейта : Постоянный
Битрейт : 1510 Кбит/сек
Каналы : 2 канала
Расположение каналов : Front: L R
Частота : 48,0 КГц
Битовая глубина : 16 бит
Метод сжатия : С потерями
Размер потока : 996 Мбайт (9%)
Заголовок : ENG / Commentary
Язык : English
Default : Нет
Forced : Нет
Текст #1
Идентификатор : 5
Формат : UTF-8
Идентификатор кодека : S_TEXT/UTF8
Идентификатор кодека/Информация : UTF-8 Plain Text
Заголовок : RUS
Язык : Russian
Default : Нет
Forced : Нет
Текст #2
Идентификатор : 6
Формат : UTF-8
Идентификатор кодека : S_TEXT/UTF8
Идентификатор кодека/Информация : UTF-8 Plain Text
Заголовок : ENG
Язык : English
Default : Нет
Forced : Нет
Меню
00:00:00.000 : en:CHAPTER01
00:07:19.773 : en:CHAPTER02
00:13:12.583 : en:CHAPTER03
00:20:29.145 : en:CHAPTER04
00:27:30.440 : en:CHAPTER05
00:35:08.732 : en:CHAPTER06
00:43:25.436 : en:CHAPTER07
00:51:03.769 : en:CHAPTER08
00:59:19.848 : en:CHAPTER09
01:06:19.726 : en:CHAPTER10
01:13:48.507 : en:CHAPTER11
01:22:40.789 : en:CHAPTER12

Скриншоты

Other forum [Profile] [PM]
Display posts from previous:    
Reply to topic

The time now is: Today 10:50

All times are GMT + 3 Hours



You cannot post new topics in this forum
You cannot reply to topics in this forum
You cannot edit your posts in this forum
You cannot delete your posts in this forum
You cannot vote in polls in this forum
You cannot attach files in this forum
You cannot download files in this forum