Today is a free download without charge Download

Мой дорогой враг / Мой милый враг / My Dear Enemy / Meotjin haru (Ли Юн Ки / Lee Yoon-ki) [2008, Корея Южная, драма, мелодрама, BDRip 1080p] (Фан-саб группа "Альянс") + Sub Rus

Reply to topic
 
Author
Message

Omen ®

Longevity: 8 years 5 months

Posts: 181087

Торрент-статистика

Post 31-Mar-2013 14:57

[Quote]

Мой дорогой враг / Мой милый враг / My Dear Enemy / Meotjin haru
Страна: Корея Южная
Студия: B.O.M. Film Productions Co. Ltd.
Жанр: драма, мелодрама
Год выпуска: 2008
Продолжительность: 02:04:16
Перевод: Субтитры Фан-саб группа "Альянс"
Cубтитры: русские, английские, корейские, японские
Оригинальная аудиодорожка: корейская
Режиссер: Ли Юн Ки / Lee Yoon-ki
В ролях: Чон До Ён, Ха Чон У, Чхве Иль Хва, Чу-бон Джи, Хан Хё Чжу, Со-ён Янг
Описание: Хи-Су уже за тридцать, у нее нет работы, она одинока и несчастна. В один прекрасный день она отправляется на поиски своего бывшего друга Бьёнг-Вона. И дело не в любви, а в тысяче долларов, которые она одолжила ему год назад. Бьёнг-Вон тоже без гроша в кармане, но он приятно удивлен, встретив её. Опасаясь, что парень сбежит, не вернув долг, Хи-Су следует за ним, пока он ищет возможность занять на время денег у разных девушек. Так два бывших влюбленных путешествуют весь день, чтобы собрать деньги, и воспоминания.
Сэмпл: http://multi-up.com/848765
Тип релиза: BDRip 1080p (LooKMaNe)
Контейнер: MKV
Видео: x264, 1920х816, 24 fps, 8547 kbps
Аудио: Корейский DTS 5.1 1510 kbps
Формат субтитров: softsub (SRT)

MediaInfo

General
Format : Matroska
Format version : Version 2
File size : 8.91 GiB
Duration : 2h 4mn
Overall bit rate : 10.3 Mbps
Encoded date : UTC 2013-03-31 07:23:58
Writing application : mkvmerge v5.5.0 ('Healer') built on Apr 6 2012 21:43:24
Writing library : libebml v1.2.3 + libmatroska v1.3.0
Video
ID : 1
Format : AVC
Format/Info : Advanced Video Codec
Format profile : [email protected]
Format settings, CABAC : Yes
Format settings, ReFrames : 5 frames
Codec ID : V_MPEG4/ISO/AVC
Duration : 2h 4mn
Bit rate : 8 547 Kbps
Width : 1 920 pixels
Height : 816 pixels
Display aspect ratio : 2.35:1
Frame rate : 24.000 fps
Color space : YUV
Chroma subsampling : 4:2:0
Bit depth : 8 bits
Scan type : Progressive
Bits/(Pixel*Frame) : 0.227
Stream size : 7.42 GiB (83%)
Writing library : x264 core 128 r2216 198a7ea
Encoding settings : cabac=1 / ref=5 / deblock=1:-1:-1 / analyse=0x3:0x133 / me=umh / subme=10 / psy=1 / psy_rd=1.00:0.15 / mixed_ref=1 / me_range=32 / chroma_me=1 / trellis=2 / 8x8dct=1 / cqm=0 / deadzone=21,11 / fast_pskip=0 / chroma_qp_offset=-3 / threads=12 / lookahead_threads=2 / sliced_threads=0 / nr=0 / decimate=1 / interlaced=0 / bluray_compat=0 / constrained_intra=0 / bframes=8 / b_pyramid=2 / b_adapt=2 / b_bias=0 / direct=3 / weightb=1 / open_gop=0 / weightp=2 / keyint=240 / keyint_min=24 / scenecut=40 / intra_refresh=0 / rc_lookahead=60 / rc=crf / mbtree=1 / crf=16.8 / qcomp=0.60 / qpmin=0 / qpmax=69 / qpstep=4 / ip_ratio=1.40 / aq=1:1.00
Default : Yes
Forced : No
Audio
ID : 2
Format : DTS
Format/Info : Digital Theater Systems
Codec ID : A_DTS
Duration : 2h 4mn
Bit rate mode : Constant
Bit rate : 1 510 Kbps
Channel(s) : 6 channels
Channel positions : Front: L C R, Side: L R, LFE
Sampling rate : 48.0 KHz
Bit depth : 24 bits
Compression mode : Lossy
Stream size : 1.31 GiB (15%)
Language : Korean
Default : Yes
Forced : No
Text #1
ID : 3
Format : UTF-8
Codec ID : S_TEXT/UTF8
Codec ID/Info : UTF-8 Plain Text
Title : Фан-саб группа "Альянс"
Language : Russian
Default : Yes
Forced : No
Text #2
ID : 4
Format : UTF-8
Codec ID : S_TEXT/UTF8
Codec ID/Info : UTF-8 Plain Text
Language : English
Default : No
Forced : No
Text #3
ID : 5
Format : PGS
Muxing mode : zlib
Codec ID : S_HDMV/PGS
Codec ID/Info : The same subtitle format used on BDs/HD-DVDs
Language : English
Default : No
Forced : No
Text #4
ID : 6
Format : PGS
Muxing mode : zlib
Codec ID : S_HDMV/PGS
Codec ID/Info : The same subtitle format used on BDs/HD-DVDs
Language : Korean
Default : No
Forced : No
Text #5
ID : 7
Format : PGS
Muxing mode : zlib
Codec ID : S_HDMV/PGS
Codec ID/Info : The same subtitle format used on BDs/HD-DVDs
Language : Japanese
Default : No
Forced : No
Menu
00:00:00.000 : en:00:00:00.000
00:07:27.958 : en:00:07:27.958
00:15:02.292 : en:00:15:02.292
00:29:20.958 : en:00:29:20.958
00:39:18.875 : en:00:39:18.875
00:47:11.083 : en:00:47:11.083
00:58:14.125 : en:00:58:14.125
01:04:06.875 : en:01:04:06.875
01:19:05.917 : en:01:19:05.917
01:30:21.583 : en:01:30:21.583
01:45:52.875 : en:01:45:52.875
02:00:44.958 : en:02:00:44.958

Скриншоты

Other forum [Profile] [PM]
Display posts from previous:    
Reply to topic

The time now is: Today 02:09

All times are GMT + 3 Hours



You cannot post new topics in this forum
You cannot reply to topics in this forum
You cannot edit your posts in this forum
You cannot delete your posts in this forum
You cannot vote in polls in this forum
You cannot attach files in this forum
You cannot download files in this forum