Today is a free download without charge Download

Хичкок / Hitchcock (Саша Джерваси / Sacha Gervasi) [2012, США, драма, история, биография, BDRip 1080p] Dub + Original + Comm + subs

Reply to topic
 
Author
Message

Omen ®

Longevity: 8 years 5 months

Posts: 181087

Торрент-статистика

Post 31-Mar-2013 14:57

[Quote]

Хичкок / Hitchcock- Год выпуска: 2012
Страна: США
Жанр: драма, история, биография
Продолжительность: 01:38:20
Перевод: Профессиональный (полное дублирование)
Оригинальная звуковая дорожка: English
Cубтитры: Russian, Russian (Commentary), Ukrainian, English, English (SDH), English (SDH-COLORED)-Режиссер: Саша Джерваси / Sacha Gervasi
В ролях: Энтони Хопкинс, Хелен Миррен, Скарлетт Йоханссон, Тони Коллетт, Дэнни Хьюстон, Джессика Бил, Майкл Стулбарг, Майкл Уинкотт, Джеймс Д’Арси, Ричард Портноу
Описание: Известный режиссер отваживается на эксперимент: отойти от ставших его визитной карточкой дорогостоящих фильмов в жанре «саспенс» и снять скромную, к тому же черно-белую картину «Психо». В процессе работы будущий «мастер страха» вглядывается в темные бездны человеческой души, чтобы найти те нервные окончания, прикасаясь к которым он мог бы, как по клавишам, сыграть на эмоциях зрителя настоящую симфонию ужаса.-Релиз: by sergey_n
Формат: MKV
Видео: 1920x796 at 23.976 fps, [email protected], ~10024 kbps avg
Аудио #1: Russian: 48 kHz, DTS, 3/2 (L,C,R,l,r) + LFE ch, ~768.00 kbps avg |Дубляж, Blu-ray EUR|
Аудио #2: English: 48 kHz, DTS, 3/2 (L,C,R,l,r) + LFE ch, ~1536.00 kbps avg
Аудио #3: English: 48 kHz, AC3, 2/0 (L,R) ch, ~192.00 kbps avg |Commentary with Sacha Gervasi and Stephen Rebello|
Семпл-

Кадры из фильма


-

mInfo


Формат : Matroska
Версия формата : Version 2
Размер файла : 8,59 Гбайт
Продолжительность : 1 ч. 38 м.
Общий поток : 12,5 Мбит/сек
Название фильма : Hitchcock (2012) - Release for HDCLUB
Дата кодирования : UTC 2013-03-29 17:29:50
Программа кодирования : mkvmerge v3.4.0 ('Rapunzel') built on May 15 2010 09:38:20
Библиотека кодирования : libebml v0.8.0 + libmatroska v0.9.0
Видео
Идентификатор : 1
Формат : AVC
Формат/Информация : Advanced Video Codec
Профиль формата : [email protected]
Параметр CABAC формата : Да
Параметр ReFrames формата : 4 кадра
Идентификатор кодека : V_MPEG4/ISO/AVC
Продолжительность : 1 ч. 38 м.
Битрейт : 10,0 Мбит/сек
Ширина : 1920 пикселей
Высота : 796 пикселей
Соотношение сторон : 2,40:1
Частота кадров : 23,976 кадра/сек
Цветовое пространство : YUV
Субдискретизация насыщенности : 4:2:0
Битовая глубина : 8 бит
Тип развёртки : Прогрессивная
Бит/(Пиксели*Кадры) : 0.274
Размер потока : 6,71 Гбайт (78%)
Заголовок : Release for HDCLUB
Библиотека кодирования : x264 core 120 r2120 0c7dab9
Настройки программы : cabac=1 / ref=4 / deblock=1:-3:-3 / analyse=0x3:0x113 / me=umh / subme=10 / psy=1 / psy_rd=1.05:0.10 / mixed_ref=1 / me_range=48 / chroma_me=1 / trellis=2 / 8x8dct=1 / cqm=0 / deadzone=21,11 / fast_pskip=0 / chroma_qp_offset=-2 / threads=12 / sliced_threads=0 / nr=0 / decimate=1 / interlaced=0 / bluray_compat=0 / constrained_intra=0 / bframes=6 / b_pyramid=2 / b_adapt=2 / b_bias=0 / direct=3 / weightb=1 / open_gop=0 / weightp=2 / keyint=250 / keyint_min=23 / scenecut=40 / intra_refresh=0 / rc_lookahead=40 / rc=2pass / mbtree=0 / bitrate=10024 / ratetol=2.0 / qcomp=0.70 / qpmin=0 / qpmax=69 / qpstep=4 / cplxblur=20.0 / qblur=0.5 / vbv_maxrate=40000 / vbv_bufsize=30000 / nal_hrd=none / ip_ratio=1.40 / pb_ratio=1.30 / aq=2:1.00
Язык : English
Аудио #1
Идентификатор : 2
Формат : DTS
Формат/Информация : Digital Theater Systems
Идентификатор кодека : A_DTS
Продолжительность : 1 ч. 38 м.
Вид битрейта : Постоянный
Битрейт : 755 Кбит/сек
Каналы : 6 каналов
Расположение каналов : Front: L C R, Side: L R, LFE
Частота : 48,0 КГц
Битовая глубина : 24 бит
Метод сжатия : С потерями
Размер потока : 531 Мбайт (6%)
Заголовок : DTS 5.1 @ 768 kbps - DUB, Blu-ray
Язык : Russian
Аудио #2
Идентификатор : 3
Формат : DTS
Формат/Информация : Digital Theater Systems
Идентификатор кодека : A_DTS
Продолжительность : 1 ч. 38 м.
Вид битрейта : Постоянный
Битрейт : 1510 Кбит/сек
Каналы : 6 каналов
Расположение каналов : Front: L C R, Side: L R, LFE
Частота : 48,0 КГц
Битовая глубина : 24 бит
Метод сжатия : С потерями
Задержка видео : 11 мс.
Размер потока : 1,04 Гбайт (12%)
Заголовок : DTS 5.1 @ 1536 kbps
Язык : English
Аудио #3
Идентификатор : 4
Формат : AC-3
Формат/Информация : Audio Coding 3
Расширение режима : CM (complete main)
Идентификатор кодека : A_AC3
Продолжительность : 1 ч. 38 м.
Вид битрейта : Постоянный
Битрейт : 224 Кбит/сек
Каналы : 2 канала
Расположение каналов : Front: L R
Частота : 48,0 КГц
Битовая глубина : 16 бит
Метод сжатия : С потерями
Размер потока : 158 Мбайт (2%)
Заголовок : AC3 2.0 @ 192 kbps - Commentary
Язык : English
Текст #1
Идентификатор : 5
Формат : UTF-8
Идентификатор кодека : S_TEXT/UTF8
Идентификатор кодека/Информация : UTF-8 Plain Text
Язык : Russian
Текст #2
Идентификатор : 6
Формат : UTF-8
Идентификатор кодека : S_TEXT/UTF8
Идентификатор кодека/Информация : UTF-8 Plain Text
Заголовок : Commentary
Язык : Russian
Текст #3
Идентификатор : 7
Формат : UTF-8
Идентификатор кодека : S_TEXT/UTF8
Идентификатор кодека/Информация : UTF-8 Plain Text
Язык : Ukrainian
Текст #4
Идентификатор : 8
Формат : UTF-8
Идентификатор кодека : S_TEXT/UTF8
Идентификатор кодека/Информация : UTF-8 Plain Text
Язык : English
Текст #5
Идентификатор : 9
Формат : UTF-8
Идентификатор кодека : S_TEXT/UTF8
Идентификатор кодека/Информация : UTF-8 Plain Text
Заголовок : SDH
Язык : English
Текст #6
Идентификатор : 10
Формат : UTF-8
Идентификатор кодека : S_TEXT/UTF8
Идентификатор кодека/Информация : UTF-8 Plain Text
Заголовок : SDH_COLOR
Язык : English
Меню
00:00:00.000 : en:00:00:00.000
00:02:26.730 : en:00:02:26.730
00:05:17.108 : en:00:05:17.108
00:08:41.146 : en:00:08:41.146
00:12:26.162 : en:00:12:26.162
00:14:41.380 : en:00:14:41.380
00:19:07.396 : en:00:19:07.396
00:20:56.839 : en:00:20:56.839
00:23:48.677 : en:00:23:48.677
00:25:14.221 : en:00:25:14.221
00:27:13.423 : en:00:27:13.423
00:31:10.452 : en:00:31:10.452
00:32:15.809 : en:00:32:15.809
00:34:21.726 : en:00:34:21.726
00:37:30.123 : en:00:37:30.123
00:39:06.553 : en:00:39:06.553
00:43:22.975 : en:00:43:22.975
00:45:50.998 : en:00:45:50.998
00:49:19.498 : en:00:49:19.498
00:52:54.797 : en:00:52:54.797
00:58:12.072 : en:00:58:12.072
01:00:32.838 : en:01:00:32.838
01:03:56.458 : en:01:03:56.458
01:10:03.866 : en:01:10:03.866
01:15:35.114 : en:01:15:35.114
01:19:40.818 : en:01:19:40.818
01:22:38.495 : en:01:22:38.495
01:23:54.238 : en:01:23:54.238
01:25:57.069 : en:01:25:57.069
01:28:13.413 : en:01:28:13.413
01:29:46.131 : en:01:29:46.131
01:31:38.493 : en:01:31:38.493

-
Цитата:

*** Сохранены оригинальные чаптеры как на Blu-ray.
*** Fix OCR, italics, overlapping, etc... @ Dorothea.
Other forum [Profile] [PM]
Display posts from previous:    
Reply to topic

The time now is: Today 12:59

All times are GMT + 3 Hours



You cannot post new topics in this forum
You cannot reply to topics in this forum
You cannot edit your posts in this forum
You cannot delete your posts in this forum
You cannot vote in polls in this forum
You cannot attach files in this forum
You cannot download files in this forum