Today is a free download without charge Download

Топтуны (серии 13-18 из 24) (2013) DVB (обновляемая)

Reply to topic
 
Author
Message

UndegraundMen ®

Longevity: 8 years 9 months

Posts: 25145

Торрент-статистика

Post 31-Mar-2013 08:53

[Quote]

Топтуны (серии 13-18 из 24) (2013) DVB (обновляемая)- Русское название: Топтуны
Производство: "Star Media"
Год выпуска: 2013
Жанр: Детектив, Криминал
Режиссер: Сергей Векслер, Сергей Артимович
Актеры: Денис Никифоров, Анна Носатова, Андрей Негривода, Дарья Шиханова, Ксения Иванова, Владимир Яковлев, Сослан Фидаров, Елена Мольченко (Фатюшина), Сергей Векслер, Евгений Леонов-Гладышев, Александра Афанасьева-Шевчук, Анна Банщикова, Егор Баринов, Луиза-Габриэла Бровина, Александр Рапопорт, Татьяна Косач-Брындина, Алексей Секирин, Бесо Гатаев, Евгений Ермаков, Алена Созинова, Сергей Терещенко, Николай Дроздовский, Сергей Комаров, Юрий Яковлев-Суханов, Мария Горбань, Руслан Ягудин, Александр Шпагин, Дарья Авратинская, Сергей Белов, Роман Синицын, Алексей Артемов, Денис Сердюков, Николай Алипа, Сергей Апрельский, Тарас Кияшко, Константин Новиков, Виктор Фалалеев, Константин Тополага, Василий Мичков, Джамболат Сланов, Максим Костромыкин, Надежда Белова
Описание фильма:
«Топтуны» — так называют Оперативно-поисковое управление, одну из самых засекреченных служб МВД. Майор милиции Сергей Ковалев, его помощник Макс Самедов, оперуполномоченные Аглая Максимова и Екатерина Чепикова каждый день имеют дело с особо опасными преступниками.
Маскируясь под обычных людей и часто без оружия, они обязаны найти и обезвредить подозреваемых в уголовных преступлениях. Мгновенно перевоплощаясь в любой образ, которого требует ситуация, эта команда выполняет самые различные задачи — от поиска вооруженного дезертира, до ареста главбуха финансовой пирамиды, находящегося в бегах с круглой суммой уже не один год.

Дата российской премьеры: 18.03.2013
Продолжительность: ~ 00:45:00
Качество видео: DVBRip
Видеокодек: MPEG-2
Битрейт видео: ~5100 Kbps
Размер кадра: 720x576
Аудиокодек: MP2
Битрейт аудио: 2 ch, 192 Kbps

MediaInfo:

Код:
Общее
Полное имя : G:\DOWNLOADS\Топтуны (2013) DVB\Топтуны - 01 серия.mpg
Формат : MPEG-PS
Размер файла : 1,60 Гбайт
Продолжительность : 42 м.
Режим общего битрейта : Переменный
Общий поток : 5413 Кбит/сек
Библиотека кодирования : (c) 1998-2012 Womble Multimedia, Inc. / MPEG Video Wizard DVD 5.0.1.100 (03/2011) / Sep 7 2012
Видео
Идентификатор : 224 (0xE0)
Формат : MPEG Video
Версия формата : Version 2
Профиль формата : [email protected]
Параметр BVOP формата : Да
Параметр матрицы формата : Выборочная
Параметр GOP формата : Variable
Продолжительность : 42 м.
Вид битрейта : Переменный
Битрейт : 5113 Кбит/сек
Максимальный битрейт : 15,0 Мбит/сек
Ширина : 720 пикселей
Высота : 576 пикселей
Соотношение сторон : 4:3
Частота кадров : 25,000 кадров/сек
Стандарт вещания : PAL
Цветовое пространство : YUV
Субдискретизация насыщенности : 4:2:0
Битовая глубина : 8 бит
Тип развёртки : Чересстрочная
Порядок развёртки : Верхнее поле первое
Метод сжатия : С потерями
Бит/(Пиксели*Кадры) : 0.493
TimeCode_FirstFrame : 00:00:00:00
TimeCode_Source : Group of pictures header
Размер потока : 1,51 Гбайт (94%)
Библиотека кодирования : (c) 1998-2012 Womble Multimedia, Inc. / MPEG Video Wizard DVD 5.0.1.100 (03/2011) / Sep 7 2012
Аудио
Идентификатор : 192 (0xC0)
Формат : MPEG Audio
Версия формата : Version 1
Профиль формата : Layer 2
Продолжительность : 42 м.
Вид битрейта : Постоянный
Битрейт : 192 Кбит/сек
Каналы : 2 канала
Частота : 48,0 КГц
Метод сжатия : С потерями
Задержка видео : -40 мс.
Размер потока : 58,2 Мбайт (4%)

Описание обновления торрента

Внимание! Раздача ведётся путём добавления новых серий; при каждом добавлении создётся новый торрент. Чтобы начать докачку новой серии, пользователям необходимо сделать следующее:
1. Остановить скачивание.
2. Удалить старый торрент у себя из клиента (старые серии удалять не надо).
3. Скачать новый торрент и запустить его у себя в клиенте вместо старого, при этом указать клиенту путь в старую папку куда и должно происходить скачивание новых серий.
Ваш клиент при этом должен произвести хеширование (проверку) старой папки (если не производит сам - помогите ему сделать это), и будет докачивать только те серии которых у вас ещё нет. Старые серии при этом не удаляются, а продолжают раздаваться!
Eсли вы уже удалили старые серии, то предотвратить повторную закачку старых серий можно, отжав галочку в соответсвующих местах при запуске нового торрента. По возможности, желательно не удалять старые серии как можно дольше чтобы релизёр не столько продолжал раздавать старые серии, а смог сконцентрироваться на новых.
Скриншоты:
Other forum [Profile] [PM]
Display posts from previous:    
Reply to topic

The time now is: Today 17:45

All times are GMT + 3 Hours



You cannot post new topics in this forum
You cannot reply to topics in this forum
You cannot edit your posts in this forum
You cannot delete your posts in this forum
You cannot vote in polls in this forum
You cannot attach files in this forum
You cannot download files in this forum