Today is a free download without charge Download

Фродя [4 серии из 4] (2013) SATRip

Reply to topic
 
Author
Message

UndegraundMen ®

Longevity: 8 years 9 months

Posts: 25145

Торрент-статистика

Post 31-Mar-2013 08:53

[Quote]

Фродя [4 серии из 4] (2013) SATRip- Русское название: Фродя
Выпущено: Россия, Украина, "Медиапрофсоюз"
Год выпуска: 2013
Жанр: Мелодрама
Перевод: Оригинал (Русский)
Субтитры: Отсутствуют

Дата российской премьеры: 30 марта 2013
Режиссер: Алина Чеботарева
Актеры: Ксения Кузнецова, Сергей Горобченко, Фёдор Гуринец, Наталья Хорохорина, Алеся Пуховая, Андрей Дебрин
Описание фильма:
В деревне все зовут ее Фродей. Полным именем - Афродита - называли лишь покойный отец да любимый Павел, с которым развела ее жизнь много лет назад. Приревновал он Фродю к молодому следователю, сгоряча уехал в город да там и остался.
Шли годы, уходила молодость, а в жизни Фроди не было ни дня счастья. И вот Павел вернулся, но не один: привез погостить к матери троих своих ребятишек. Вздрогнуло сердце Фроди, как будто расстались они вчера...
Продолжительность: 4 х ~ 00:42:24 серия
Качество видео: SATRip
Видеокодек: DivX 5
Битрейт видео: ~1600 Kbit/s
Размер кадра: 704 х 400
Аудиокодек: MP3, 2.0
Битрейт аудио: 128 Kbit/s

MediaInfo

Общее
Полное имя : D:\Торренты\ФИЛЬМЫ торента\Фродя. 2013. SATRip\Фродя.01.avi
Формат : AVI
Формат/Информация : Audio Video Interleave
Размер файла : 529 Мбайт
Продолжительность : 42 м.
Общий поток : 1745 Кбит/сек
Видео
Идентификатор : 0
Формат : MPEG-4 Visual
Параметр BVOP формата : Да
Параметр QPel формата : Нет
Параметр GMC формата : Без точки перехода
Параметр матрицы формата : Default (H.263)
Идентификатор кодека : DX50
Идентификатор кодека/Подсказка : DivX 5
Продолжительность : 42 м.
Битрейт : 1600 Кбит/сек
Ширина : 704 пикс.
Высота : 400 пикс.
Соотношение сторон : 16:9
Частота кадров : 25,000 кадр/сек
Цветовое пространство : YUV
Подвыборка цветности : 4:2:0
Битовая глубина : 8 бит
Тип развёртки : Прогрессивная
Метод сжатия : С потерями
Бит/(Пиксели*Кадры) : 0.227
Размер потока : 485 Мбайт (92%)
Библиотека кодирования : Intel(R) MPEG-4 encoder based on Intel(R) IPP 6.1 build 137.20[6.1.137.763]
Аудио
Идентификатор : 1
Формат : MPEG Audio
Версия формата : Version 1
Профиль формата : Layer 3
Режим : Joint stereo
Расширение режима : MS Stereo
Идентификатор кодека : 55
Идентификатор кодека/Подсказка : MP3
Продолжительность : 42 м.
Вид битрейта : Постоянный
Битрейт : 128 Кбит/сек
Каналы : 2 канала
Частота : 48,0 КГц
Метод сжатия : С потерями
Размер потока : 38,8 Мбайт (7%)
Выравнивание : Соединение по промежуткам
Продолжительность промежутка : 24 мс. (0,60 видеокадр)
Библиотека кодирования : LAME3.98.2
Скриншоты:
           
Время раздачи: 24/7 по возможности
Other forum [Profile] [PM]
Display posts from previous:    
Reply to topic

The time now is: Today 22:40

All times are GMT + 3 Hours



You cannot post new topics in this forum
You cannot reply to topics in this forum
You cannot edit your posts in this forum
You cannot delete your posts in this forum
You cannot vote in polls in this forum
You cannot attach files in this forum
You cannot download files in this forum